<?xml version="1.0" standalone="no"?>
<!DOCTYPE svg PUBLIC "-//W3C//DTD SVG 1.1//EN" "http://www.w3.org/Graphics/SVG/1.1/DTD/svg11.dtd" >
<svg xmlns="http://www.w3.org/2000/svg">
<metadata>
This is a custom SVG webfont generated by Font Squirrel.
Copyright   : Copyright c David J Perry 20022011 All rights reserved
Designer    : David J Perry
Foundry     : David J Perry
Foundry URL : httpscholarsfontsnet
</metadata>
<defs>
<font id="CardoRegular" horiz-adv-x="1049" >
<font-face units-per-em="2048" ascent="1638" descent="-410" />
<missing-glyph horiz-adv-x="550" />
<glyph unicode=" "  horiz-adv-x="550" />
<glyph unicode="&#x09;" horiz-adv-x="550" />
<glyph unicode="&#xa0;" horiz-adv-x="550" />
<glyph unicode="!" horiz-adv-x="489" d="M130 92q0 24 9 45t24.5 36.5t36 24.5t43.5 9q24 0 45.5 -10t37 -26.5t24.5 -38t9 -44.5q0 -24 -8.5 -44.5t-23.5 -36.5t-35.5 -25t-44.5 -9q-26 0 -47 9.5t-37 25.5t-24.5 38t-8.5 46zM138 1425v52q0 14 15 14q12 0 39.5 1t50.5 1h37q20 0 38 -2q7 0 16.5 -2.5 t12.5 -11.5v-52l-74 -962q-2 -17 -9 -28t-21 -11t-21.5 11t-9.5 28z" />
<glyph unicode="&#x22;" horiz-adv-x="834" d="M133 1330q0 15 9.5 29.5t24.5 26t34 18t39 6.5q19 0 37.5 -6.5t32.5 -18t23 -26t9 -29.5q0 -34 -8 -96t-19 -135t-22.5 -148t-18.5 -135h-75q-4 60 -15 135t-22 148.5t-20 135.5t-9 95zM500 1329q0 16 9.5 30.5t25 26t34.5 18t37 6.5q19 0 37.5 -6.5t33 -18t23.5 -26 t9 -30.5q0 -34 -8 -96t-19 -134.5t-22.5 -147t-18.5 -134.5h-76q-2 40 -7.5 87t-13.5 96l-14 100q-8 49 -14.5 92.5t-11 79t-4.5 57.5z" />
<glyph unicode="#" horiz-adv-x="1188" d="M2 473l31 121h266l76 350h-279l33 121h272l101 473h127l-101 -473h252l101 473h127l-101 -473h273l-29 -121h-270l-72 -350h276l-28 -121h-275l-106 -508h-133l108 508h-248l-106 -508h-133l108 508h-270zM430 594h248l74 350h-250z" />
<glyph unicode="$" d="M120 218q0 35 23.5 56t53.5 21q24 0 38.5 -13t25 -34.5t20.5 -48.5t25.5 -55t38 -53.5t59.5 -44.5v611q-50 31 -94.5 65t-77.5 72.5t-52.5 82.5t-19.5 97q0 48 17.5 93.5t49.5 83.5t77 67t100 44v160h55v-149q25 3 52 3q20 0 43 -1.5t49 -5.5v153h56v-163 q44 -10 87 -25.5t78 -38.5t58.5 -53t28.5 -69q0 -29 -20 -48t-45 -19q-24 0 -45 20.5t-42 49t-44 60t-53 53.5q-1 0 -3 2v-499q14 -8 26 -14q54 -29 104 -65.5t89 -80.5t62.5 -94.5t23.5 -105.5q0 -72 -24 -129.5t-65 -100t-96.5 -70.5t-119.5 -43v-208h-56v198 q-23 -3 -47 -5t-47 -2q-25 0 -50 3v-194h-55v204q-49 11 -98 31.5t-88.5 50t-66.5 67.5t-31 84zM279 1048q0 -31 7.5 -54.5t23 -44.5t39 -42t55.5 -48v356q-38 -12 -62 -31.5t-38 -42.5t-19.5 -47.5t-5.5 -45.5zM459 26q17 -5 37.5 -8t43.5 -4q17 0 32.5 1.5t30.5 3.5v521 q-35 21 -71.5 41.5t-72.5 42.5v-598zM459 818q65 -47 144 -94v495q-20 6 -43 8.5t-51 2.5t-50 -3v-409zM659 34q77 28 123.5 89t51.5 145q0 36 -13.5 68.5t-36.5 61.5t-55.5 55t-69.5 51v-470z" />
<glyph unicode="%" horiz-adv-x="1750" d="M1101 394q0 80 21.5 156.5t58 136.5t86.5 96.5t107 36.5q72 0 126.5 -37t91 -97t55.5 -136.5t19 -155.5q0 -78 -20 -153t-57 -133.5t-89.5 -94.5t-116.5 -36q-54 0 -105 33t-90 89.5t-63 132.5t-24 162zM1222 396q0 -86 8 -152t27 -111t51 -68.5t80 -23.5q50 0 80.5 28 t47.5 76.5t22.5 113t5.5 138.5q0 38 -1 79t-6 80.5t-15 75t-28.5 63t-47 43.5t-69.5 16q-52 0 -83 -34t-47 -86.5t-20.5 -115.5t-4.5 -122zM261 -55l1100 1535h130l-1101 -1535h-129zM84 1026q0 80 21.5 156.5t58 136.5t86.5 96.5t107 36.5q72 0 126.5 -37t91 -97 t55.5 -136.5t19 -155.5q0 -78 -20 -153t-57 -133.5t-89.5 -94.5t-116.5 -36q-54 0 -105 33t-90 89.5t-63 132.5t-24 162zM205 1028q0 -86 8 -152t27 -111t51 -68.5t80 -23.5q50 0 80.5 28t47.5 76.5t22.5 113t5.5 138.5q0 38 -1 79t-6 80.5t-15 75t-28.5 63t-47 43.5 t-69.5 16q-52 0 -83 -34t-47 -86.5t-20.5 -115.5t-4.5 -122z" />
<glyph unicode="&#x26;" horiz-adv-x="1522" d="M23 362q0 78 29 139.5t80 111t120 88.5t149 71q-35 34 -62.5 66.5t-47.5 67t-30.5 72.5t-10.5 83q0 62 26.5 109t69 78.5t97.5 47t112 15.5q49 0 97.5 -17t87.5 -47.5t63 -74t24 -97.5q0 -45 -18.5 -83t-47.5 -69.5t-65.5 -58t-72.5 -49.5q-7 -3 -9 -5t-2 -7q0 -8 7 -15 l12 -12q4 -2 18.5 -15t31 -28t31 -28t17.5 -17q9 -6 58 -59.5t141 -169.5q15 -19 19.5 -23t6.5 -4q11 0 15 8l229 346q12 18 18.5 32.5t6.5 31.5q0 28 -17 38.5t-37.5 15t-37.5 9t-17 21.5q0 5 1 11.5t9 6.5h367q3 -5 3.5 -12t0.5 -10q0 -14 -5 -17.5t-13 -5.5 q-26 -2 -53 -4.5t-52.5 -10t-47 -21.5t-36.5 -38l-295 -467l125 -215q23 -40 55 -69t82 -29q20 0 39 5t37 11.5t34.5 14t31.5 12.5q5 0 6.5 -9t1.5 -11q0 -3 -0.5 -10t-5.5 -9q-54 -35 -115 -61.5t-127 -26.5q-35 0 -63.5 12t-52 32t-44 46.5t-40 55.5t-38.5 59t-41 57 q-48 -44 -106 -89.5t-122 -83t-132.5 -61.5t-138.5 -24q-75 0 -140 34t-113 88.5t-75.5 124.5t-27.5 142zM203 373q0 -54 21.5 -105t58.5 -90t86.5 -62.5t105.5 -23.5q50 0 99 16t94 40.5t85 54.5t72 57q17 16 17 33q-1 1 -1 3q-1 2 -1 5q-135 232 -332 390q-11 9 -26 22 t-29 13t-30 -8.5t-26 -14.5q-43 -25 -78.5 -61t-61 -79.5t-40 -92t-14.5 -97.5zM397 1100q0 -38 11 -74.5t31 -69t48 -60t62 -48.5q34 6 61 30.5t46 56.5t28.5 67t9.5 63q0 40 -8 74t-27 59t-49 39t-73 14q-34 0 -60 -11.5t-44 -32t-27 -48t-9 -59.5z" />
<glyph unicode="'" horiz-adv-x="465" d="M129 1328q0 16 9.5 31t24.5 26t33.5 18t36.5 7q20 0 39 -7t33.5 -18t23.5 -26t9 -31q0 -34 -8 -96t-19 -135t-22.5 -148t-18.5 -135h-75q-4 60 -15 135.5t-22 148.5t-20 135t-9 95z" />
<glyph unicode="(" horiz-adv-x="650" d="M171 603q0 151 25 301.5t74.5 294t124 276t172.5 247.5q5 6 7 8t7 2q6 0 14 -7t15 -17t11.5 -19.5t4.5 -13.5q0 -13 -6 -23q-77 -118 -136.5 -241t-100.5 -254t-62.5 -270.5t-21.5 -289.5q0 -290 83.5 -548t237.5 -493q6 -11 6 -23q0 -5 -4.5 -14t-11.5 -19t-15 -17 t-14 -7q-5 0 -7 2t-7 8q-97 116 -171 248t-124 274.5t-75.5 292.5t-25.5 302z" />
<glyph unicode=")" horiz-adv-x="650" d="M24 -467q0 12 6 23q154 235 237.5 493t83.5 548q0 150 -21.5 289.5t-62.5 270.5t-100.5 254t-136.5 241q-6 10 -6 23q0 4 4.5 13.5t11.5 19.5t15 17t14 7q5 0 7 -2t7 -8q99 -114 173.5 -246.5t124 -276t74 -294.5t24.5 -302q0 -152 -25.5 -302t-75.5 -292.5t-124 -274.5 t-171 -248q-5 -6 -7 -8t-7 -2q-6 0 -14 7t-15 17t-11.5 19t-4.5 14z" />
<glyph unicode="*" horiz-adv-x="741" d="M40 1337l11 43l253 -39l44 253h44l41 -253l254 36l14 -42l-228 -118l113 -230l-35 -26l-181 182l-184 -178l-37 24l117 228z" />
<glyph unicode="+" d="M88 562v127h375v389h127v-389h370v-127h-370v-385h-127v385h-375z" />
<glyph unicode="," horiz-adv-x="520" d="M121 123q0 24 10 44.5t26.5 35.5t38 24t43.5 9q40 0 70 -18t50 -47t30 -64.5t10 -69.5q0 -46 -13 -87.5t-36 -78.5t-54.5 -69t-69.5 -59q-14 -10 -31 -20t-31 -10q-10 0 -12.5 9.5t-2.5 17.5t6 15.5t14 13.5t15.5 11t11.5 9q17 15 36 34t34.5 41t26 45.5t10.5 49.5 q0 6 -0.5 13t-4 13.5t-11 10.5t-21.5 4q-29 0 -55 6.5t-46 20.5t-32 37.5t-12 58.5z" />
<glyph unicode="-" horiz-adv-x="913" d="M85 441v137h743v-137h-743z" />
<glyph unicode="." horiz-adv-x="520" d="M130 103q0 26 10.5 49.5t28 41.5t41 28.5t50.5 10.5t50.5 -10.5t41.5 -28.5t28 -42t10 -50q0 -28 -10 -51.5t-28 -41t-41.5 -27t-50.5 -9.5t-50.5 10t-41 27t-28 41t-10.5 52z" />
<glyph unicode="/" horiz-adv-x="664" d="M5 -27l524 1479h130l-525 -1479h-129z" />
<glyph unicode="0" d="M76 600v93q0 83 17.5 165.5t48.5 159t72.5 142.5t89.5 114.5t100.5 76.5t104.5 28q76 0 140 -28.5t115.5 -78t90.5 -117t65 -146.5t39.5 -166t13.5 -174t-14.5 -172t-41.5 -162.5t-66.5 -143.5t-89.5 -114.5t-109.5 -76t-127.5 -27.5q-61 0 -118 27.5t-106.5 74.5 t-91 109.5t-71 132.5t-45.5 142.5t-16 140.5zM237 668q0 -143 13 -260.5t46 -201t89.5 -129t145.5 -45.5q61 0 105.5 25t75.5 69t50.5 104.5t30 132t14.5 150.5t4 161q0 63 -1.5 135t-10 144t-27 138t-51 117t-83 81.5t-123.5 30.5q-63 0 -108.5 -30t-76 -80.5t-49 -117 t-28.5 -139t-13 -146.5t-3 -139z" />
<glyph unicode="1" d="M190 1055q0 3 8 8q33 22 76.5 57t91 77t94.5 88.5t86 93.5h56q13 0 16 -4t3 -15v-1199v-21q0 -14 1.5 -28.5t4.5 -27t8 -15.5q13 -8 35.5 -13.5t50 -9t57 -5t55.5 -1.5q5 0 6.5 -3t1.5 -5v-24q0 -2 -1.5 -5t-6.5 -3h-602q-8 0 -8 8v9v15q0 8 8 8q50 3 87 4.5t64 4t45 6 t29 9.5q14 8 17 26t3 47v1065q1 2 -21.5 -16t-59 -45t-84 -57.5t-95.5 -53.5q-1 0 -2.5 -0.5t-3.5 -0.5t-4 1t-4 4l-10 17z" />
<glyph unicode="2" d="M76 26q0 18 9 32t22 29q62 70 134.5 142.5t144.5 145.5t139 146.5t118.5 145.5t82.5 142t31 136q0 58 -23 114t-62.5 100t-91 71t-108.5 27q-44 0 -101 -17.5t-106 -59.5q-49 -43 -71.5 -82t-32.5 -69t-14.5 -48t-17.5 -18q-4 0 -11.5 -1.5t-12.5 -1.5q-10 0 -10 6 q0 5 7 37t21.5 74t35.5 85t48 71q40 41 80 69t80 45t81 24.5t84 7.5q90 0 164 -30.5t126 -84t80.5 -126.5t28.5 -158q0 -65 -26.5 -126.5t-76 -124t-119.5 -128t-156 -138.5q-9 -8 -36.5 -34t-63.5 -61t-75.5 -74t-72.5 -73t-54.5 -58t-21.5 -28h563q40 0 64 10t39 30.5 t24.5 52t21.5 75.5h38l-43 -270q-2 -10 -7 -18.5t-16 -14.5h-813h-19q-4 0 -4.5 4t-0.5 22z" />
<glyph unicode="3" d="M65 131q0 37 25.5 52t57.5 15q14 0 33 -12t42 -30t50.5 -39t59 -39t67.5 -30.5t77 -12.5q71 4 126.5 42t93.5 94.5t57.5 124.5t19.5 133q0 79 -21.5 135.5t-56 92t-78 52t-87.5 16.5q-12 0 -30 -3t-37.5 -9.5t-37.5 -16.5t-28 -23q-2 -3 -5 -3q-6 0 -13 8t-7 16 q0 4 6.5 10.5t15.5 14t18 14.5t13 11q41 34 83 71.5t76 79t55.5 88.5t21.5 101q0 37 -17.5 70.5t-46 59t-65 40.5t-74.5 15q-66 0 -115 -24t-84 -57.5t-57.5 -68.5t-34.5 -57q-1 -1 -8 -1q-3 0 -8 1.5t-10.5 4t-9.5 5t-4 5.5q0 2 3 10q2 4 4 9q24 61 65.5 112.5t91.5 89.5 t104.5 59.5t104.5 21.5q71 0 128 -16.5t96.5 -47t60.5 -74t21 -96.5q0 -67 -34 -126t-88 -113q-8 -6 -24 -17.5t-32.5 -23t-29 -21t-12.5 -12.5v-1h3q6 1 13.5 1.5t14.5 0.5q31 0 60 -5.5t45 -12.5q66 -29 108 -71t65 -89t31.5 -95t8.5 -88q0 -71 -23 -135.5t-61.5 -120 t-89.5 -100.5t-107 -77t-114.5 -49t-111.5 -17q-29 0 -64.5 2t-72.5 8t-73.5 17t-67.5 28.5t-53.5 42.5t-32.5 60z" />
<glyph unicode="4" d="M63 415q0 8 1 14.5t7 15.5l620 911q11 17 19.5 20t19.5 3q16 0 27.5 -3t11.5 -23v-822q0 -16 5 -20.5t20 -4.5h161q11 0 21 -2t10 -16v-68q0 -24 -20 -24h-171q-19 0 -22.5 -5t-3.5 -19v-387q0 -5 -4 -13.5t-13 -8.5h-108q-14 0 -17 9t-3 14v386q0 14 -4.5 19t-21.5 5 h-511q-8 0 -16 2.5t-8 16.5zM183 515q0 -7 9.5 -8t21.5 -1h384q17 0 21.5 7t4.5 19v548q0 14 -3.5 26.5t-20.5 12.5q-8 0 -16 -7l-13 -14l-384 -572q-4 -5 -4 -11z" />
<glyph unicode="5" d="M104 98q0 35 23.5 56.5t53.5 21.5q31 0 64 -23.5t66.5 -52t68 -52t68.5 -23.5q57 0 102 18t80 48t60 68.5t41 78.5t23.5 79t7.5 71q0 75 -18.5 130t-48 93.5t-66.5 62t-75 36.5t-73.5 17.5t-60.5 4.5q-40 0 -76 -12t-64.5 -26.5t-47 -27t-22.5 -14.5q-2 -1 -5.5 -2.5 t-5.5 -1.5q-10 0 -10 15l30 675h509q20 0 31.5 3t17.5 8.5t9 13t8 16.5h41l-24 -169h-525q-5 0 -13 -1t-8 -6q-1 -10 -2 -35.5t-2.5 -59.5t-3.5 -73t-3.5 -77t-2.5 -71.5t-2 -55.5q0 -12 1 -11q6 6 26.5 15.5t51 18t69 15t80.5 6.5q39 0 87.5 -11t98.5 -33t97 -55.5 t83.5 -79t59 -104t22.5 -129.5q0 -95 -23.5 -168t-63 -127.5t-92 -92t-111 -60t-119 -32.5t-115.5 -10q-16 0 -43 2t-59 7.5t-64.5 14.5t-60.5 23t-47 33t-23 45z" />
<glyph unicode="6" d="M80 502q0 138 43 249.5t128 208.5t211.5 185t292.5 179q9 5 29 14t41.5 17.5t40.5 15t26 6.5q11 0 17.5 -2.5t6.5 -14.5q0 -8 -22 -22t-51.5 -30.5t-60 -33t-47.5 -28.5q-24 -16 -59 -41.5t-73.5 -56.5t-77 -66.5t-69.5 -72.5t-50.5 -73t-20.5 -69q8 0 18.5 5t25.5 11 t36 11t50 5q97 0 179.5 -36.5t142.5 -99t94 -146.5t34 -180q0 -97 -34.5 -181.5t-95.5 -147.5t-143 -99t-178 -36q-104 0 -185 46t-136.5 120.5t-84 169.5t-28.5 193zM247 444q0 -44 5.5 -92t19 -94.5t34.5 -88.5t52 -73.5t72.5 -50.5t95.5 -19q72 0 121.5 35.5t81 91.5 t45.5 124t14 133q0 82 -14.5 159.5t-49.5 137.5t-93.5 96.5t-146.5 36.5q-69 0 -114 -30t-72 -82.5t-38.5 -122.5t-12.5 -150v-11z" />
<glyph unicode="7" d="M80 969l60 348q2 5 5.5 13t10.5 8h796q11 0 19.5 -6t8.5 -24q0 -8 -1 -19.5t-3 -24t-5.5 -25t-7.5 -22.5l-560 -1244h-112v23q95 212 167 374t125.5 282t90.5 203t61.5 138t38 86t20 47.5t8 23t2.5 11.5q0 5 -6 10t-12 5h-550q-20 0 -37.5 -16t-23.5 -34l-54 -154 q-3 -11 -8.5 -14.5t-13.5 -3.5t-13.5 2t-5.5 13z" />
<glyph unicode="8" d="M162 308q0 68 26 134t74 115q12 12 36 31l50 36q24 19 42.5 34.5t18.5 21.5q0 3 -0.5 7t-4.5 6q-40 40 -77 79t-65.5 81.5t-45.5 91t-17 107.5q0 73 23.5 133t66 103t103 67t134.5 24q65 0 125 -22.5t105.5 -63t73 -97t27.5 -123.5q0 -43 -13.5 -87.5t-36.5 -81.5 q-18 -27 -48.5 -55t-60 -50.5t-51 -38t-21.5 -18.5q0 -5 5.5 -10t8.5 -7q50 -42 94.5 -82t78 -86t53 -102.5t19.5 -130.5q0 -71 -27.5 -134.5t-75 -111.5t-110.5 -76t-135 -28q-71 0 -138.5 23.5t-120 67t-84.5 105.5t-32 138zM289 301q0 -57 18 -108.5t51 -90.5t79 -61.5 t102 -22.5q34 0 72 15.5t69.5 49.5t52 87t20.5 127q0 27 -11.5 55.5t-28.5 55.5t-38 51.5t-39 42.5q-11 11 -33 35t-48.5 48.5t-54 43t-48.5 18.5q-18 0 -32.5 -17t-25.5 -29q-56 -60 -80.5 -132.5t-24.5 -155.5v-12zM320 1126q0 -52 20 -96.5t52.5 -84.5t73.5 -76.5 t83 -71.5q8 -7 19.5 -10.5t19.5 -3.5q17 0 25.5 5t23.5 20q25 25 44 57t32.5 66.5t20.5 71t7 71.5q0 49 -13 96.5t-40 84.5t-68 59.5t-96 22.5q-46 0 -83.5 -17t-64.5 -45.5t-41.5 -67t-14.5 -81.5z" />
<glyph unicode="9" d="M73 903q0 89 30 174.5t85.5 152.5t134 108t174.5 41q111 0 200 -42.5t151 -115t95.5 -168.5t33.5 -202q0 -140 -45 -262t-124.5 -223.5t-188 -181.5t-235.5 -135q-27 -12 -58.5 -25t-67 -24t-73 -18t-76.5 -7q-6 0 -6 6q0 11 6 17t14 11q67 29 136.5 66.5t134 83t122 98 t102.5 111.5q9 11 21.5 28.5t24 35.5t19.5 33t8 20q0 3 -1 5.5t-8 2.5l-102 -25q-50 -13 -106 -13q-95 0 -169 39.5t-126 103t-79 143.5t-27 162zM253 887q0 -66 19.5 -133t57 -120.5t91.5 -87.5t122 -34q24 0 51 3.5t53 11t49.5 17.5t40.5 24q20 16 31 52.5t16 80.5t6 87.5 t1 73.5q0 43 -3.5 94.5t-14.5 103t-30.5 99.5t-51 85t-77 59.5t-107.5 22.5q-52 0 -91.5 -19.5t-67.5 -52t-46.5 -75t-29.5 -88.5t-15 -92t-4 -86v-26z" />
<glyph unicode=":" horiz-adv-x="520" d="M130 103q0 26 10.5 49.5t28 41.5t41 28.5t50.5 10.5t50.5 -10.5t41.5 -28.5t28 -42t10 -50q0 -28 -10 -51.5t-28 -41t-41.5 -27t-50.5 -9.5t-50.5 10t-41 27t-28 41t-10.5 52zM130 799q0 26 10.5 49.5t28 41.5t41 28.5t50.5 10.5t50.5 -10.5t41.5 -28.5t28 -42t10 -50 q0 -28 -10 -51.5t-28 -41t-41.5 -27t-50.5 -9.5t-50.5 10t-41 27t-28 41t-10.5 52z" />
<glyph unicode=";" horiz-adv-x="520" d="M121 123q0 24 10 44.5t26.5 35.5t38 24t43.5 9q40 0 70 -18t50 -47t30 -64.5t10 -69.5q0 -46 -13 -87.5t-36 -78.5t-54.5 -69t-69.5 -59q-14 -10 -31 -20t-31 -10q-10 0 -12.5 9.5t-2.5 17.5t6 15.5t14 13.5t15.5 11t11.5 9q17 15 36 34t34.5 41t26 45.5t10.5 49.5 q0 6 -0.5 13t-4 13.5t-11 10.5t-21.5 4q-29 0 -55 6.5t-46 20.5t-32 37.5t-12 58.5zM130 799q0 26 10.5 49.5t28 41.5t41 28.5t50.5 10.5t50.5 -10.5t41.5 -28.5t28 -42t10 -50q0 -28 -10 -51.5t-28 -41t-41.5 -27t-50.5 -9.5t-50.5 10t-41 27t-28 41t-10.5 52z" />
<glyph unicode="&#x3c;" d="M173 587v72l703 411v-149l-508 -295l508 -303v-154z" />
<glyph unicode="=" d="M89 392v127h870v-127h-870zM89 732v127h870v-127h-870z" />
<glyph unicode="&#x3e;" d="M174 169v154l505 303l-505 295v149l700 -414v-71z" />
<glyph unicode="?" horiz-adv-x="778" d="M90 1329q0 30 18.5 47t45.5 26t56 11t50 2q84 0 156 -29t124.5 -80.5t82.5 -123t30 -156.5q0 -59 -18 -112.5t-50 -99.5t-76 -83t-96 -62q-25 -12 -56.5 -22t-59.5 -24.5t-47 -36.5t-19 -58q0 -21 7 -39.5t17 -37.5t19.5 -38.5t15.5 -41.5q0 -5 -6.5 -9t-11.5 -4 q-8 0 -19.5 13t-23.5 34.5t-23.5 47.5t-21 52.5t-16 50.5t-7.5 40q0 42 11.5 72.5t31.5 52t47 36.5t57 27t62.5 22.5t64.5 23.5q31 13 61.5 36t55 53.5t39.5 66t15 73.5q0 61 -24 99t-74 59t-127 28.5t-183 7.5q-18 1 -37 5.5t-34.5 13t-26 22.5t-10.5 35zM153 90q0 23 9 44 t24.5 36.5t36.5 25t45 9.5t44.5 -9.5t36 -25t24.5 -36.5t9 -44q0 -24 -9 -45t-24.5 -37t-36 -25.5t-44.5 -9.5t-45 9.5t-36.5 25.5t-24.5 37t-9 45z" />
<glyph unicode="@" horiz-adv-x="1991" d="M150 446q0 130 31.5 253.5t89.5 234t140 203t183 159t219 104t248 37.5q121 0 224 -27t186 -75.5t146 -114.5t105.5 -144t64 -164.5t21.5 -175.5q0 -107 -23 -201t-62.5 -173t-93 -141.5t-115 -106t-128.5 -66.5t-132 -23q-27 0 -63.5 2.5t-69 13.5t-55 35t-22.5 68 q0 33 3 56t7 41.5t8 35t6 34.5q0 5 -1 10.5t-7 5.5q-8 0 -22 -11q-14 -10 -39.5 -33t-57.5 -51t-67.5 -58t-69 -54.5t-63 -40.5t-48.5 -16q-38 0 -60.5 30t-34.5 71.5t-16 84.5t-4 70q0 46 12.5 95t29.5 91q43 104 116.5 192.5t167.5 153.5t203 102t222 37q13 0 15 -9.5 t2 -18.5l-151 -692l-2 -16q-1 -7 -1.5 -13.5t-0.5 -11.5q0 -60 34 -92.5t88 -32.5q58 0 111.5 27t100.5 73t85.5 107t66 128t42.5 137t15 135q0 127 -42 242t-126.5 204t-210.5 144t-294 61q-119 -3 -227.5 -38.5t-201.5 -97.5t-168 -146.5t-128.5 -185.5t-82 -215 t-28.5 -233q0 -179 63.5 -329t175.5 -258t265 -168.5t332 -60.5q138 0 254.5 38.5t211 109.5t166.5 171.5t121 223.5h77q-51 -132 -129.5 -241.5t-183.5 -190t-235 -128.5t-282 -58q-130 0 -248 30t-219 85.5t-183 135t-140 178.5t-89.5 215.5t-31.5 246.5zM712 329 q0 -21 2 -48t10.5 -51t25.5 -40t48 -16q37 0 68 20t63.5 52t70 73.5t86.5 85.5l99 455q0 11 -9 13.5t-18 2.5q-49 0 -100 -13.5t-97.5 -38t-86 -59t-65.5 -76.5q-50 -80 -71 -173.5t-26 -186.5z" />
<glyph unicode="A" horiz-adv-x="1457" d="M5 8v24q0 8 8 8q19 1 44.5 5.5t52 19t51.5 43t42 78.5l408 1181q0 -1 0.5 1t0.5 4q0 7 -5.5 17.5t-5.5 15.5t4 5h200q2 -1 5.5 -2t5.5 -6l423 -1187q14 -27 22.5 -49t19.5 -40.5t29 -34t50 -28.5q14 -7 38 -15t46 -8q5 0 6.5 -3t1.5 -6v-23q0 -2 -1.5 -5t-6.5 -3h-612 q-5 0 -6.5 3t-1.5 5v24q0 2 1.5 5t6.5 3q4 0 8 0.5t6 0.5q11 1 31.5 2t44.5 3.5t48.5 8t44.5 16t33 27.5t13 42q0 6 -2 14l-151 426q-1 2 -3.5 9t-8 14.5t-14 13.5t-20.5 6h-355q-13 0 -22 -6t-15 -13t-9.5 -14t-3.5 -8l-150 -439v-9q0 -4 2 -9q8 -25 29.5 -41.5t49.5 -26 t57.5 -13.5t52.5 -4h26q5 0 6.5 -3t1.5 -5v-24q0 -2 -1.5 -5t-6.5 -3h-511q-8 0 -8 8zM518 747q0 -6 3 -9.5t12 -3.5h295q11 0 14.5 4.5t3.5 10.5q0 5 -1 9t-3 9l-149 410q-10 27 -15 27t-8 -7.5t-8 -20.5l-140 -409q-2 -5 -3 -10t-1 -10z" />
<glyph unicode="B" horiz-adv-x="1392" d="M10 8v24q0 2 1.5 5t6.5 3q19 0 48 2t61.5 7.5t65.5 15.5t59 25t42.5 36t16.5 50v1055q-4 51 -19.5 79.5t-40 42.5t-57 17.5t-71.5 3.5h-57q-5 0 -6.5 3t-1.5 5v25q0 2 1.5 5t6.5 3q1 0 10.5 0.5t33.5 0.5t65 0.5t107 0.5q14 0 41.5 1t62 2t72.5 2.5t73 2.5t63 2t44 1 q51 0 113.5 -3.5t126 -15.5t123.5 -34.5t106.5 -60t74.5 -92.5t28 -132q0 -46 -14.5 -84t-37 -67.5t-48.5 -51t-48.5 -36t-39 -21.5t-18.5 -8q57 -32 108.5 -70t90.5 -85.5t61.5 -104.5t22.5 -126q0 -81 -22 -143t-58 -108t-82.5 -77.5t-95.5 -52t-97.5 -32t-88.5 -16.5 t-67.5 -6t-35.5 -1h-722q-5 0 -6.5 3t-1.5 5zM509 861q0 -3 3 -11t20 -8h246q48 0 89.5 19t72 52t48 77t17.5 94q0 76 -24.5 130t-68 88.5t-103 51t-130.5 16.5q-45 -3 -75 -3q-5 1 -10 1q-33 0 -52 -3t-26 -13t-7 -33v-399v-59zM511 221q0 -39 20 -68t51 -49t69.5 -30 t76.5 -10q70 0 133.5 28.5t111.5 77t76 113t28 135.5q0 85 -30.5 152.5t-83.5 114t-125 71t-155 24.5h-159q-10 0 -11.5 -3.5t-1.5 -7.5v-548z" />
<glyph unicode="C" horiz-adv-x="1566" d="M105 696q0 112 28 211.5t79 183.5t123 151t159.5 113.5t187.5 71.5t209 25q92 0 177.5 -16.5t176.5 -38.5q15 -4 31.5 -10t31 -11.5t26.5 -9.5t18 -4q2 0 13.5 4t16.5 4h31q12 0 12 -17v-311q0 -6 -4.5 -8t-19.5 -2q-3 0 -8 0.5t-8 5.5q-2 3 -5 9.5t-6.5 13.5t-7 13 t-4.5 9q-75 150 -190 225.5t-265 75.5q-142 0 -251 -48t-183.5 -132t-112.5 -199.5t-38 -250.5q0 -95 19 -184.5t55.5 -168.5t90.5 -144.5t124.5 -113t157 -74t187.5 -26.5q85 0 161 28t139.5 74t113.5 105t84 121q2 5 4.5 5.5t7.5 0.5h13q3 0 6.5 -2.5t3.5 -10.5 q0 -3 -0.5 -8t-5.5 -14l-138 -304q-2 -3 -6 -5t-7 -2q-23 6 -32.5 7t-20.5 1q-30 0 -77.5 -10.5t-102 -22.5t-110.5 -22.5t-102 -10.5q-105 0 -204 23t-186 66.5t-159 107t-124 143.5t-80.5 176.5t-28.5 206.5z" />
<glyph unicode="D" horiz-adv-x="1664" d="M45 8v28q0 1 1 4.5t7 3.5h22q21 0 52 2.5t60 14t49.5 35t20.5 64.5v1096q0 31 -13.5 52.5t-34 35t-45.5 19.5t-47 6h-64q-6 0 -7 3.5t-1 4.5v28q0 1 1 4.5t7 3.5h22l321 7q58 2 126 2h125q63 0 113 -1.5t96 -6t93 -11.5t105 -19q111 -23 206.5 -85t165 -150t109 -195 t39.5 -219q0 -108 -30 -204.5t-83.5 -178t-127 -147t-161.5 -111t-187 -70t-203 -24.5h-700h-29q-6 0 -7 3.5t-1 4.5zM452 125q0 -29 18.5 -45t49 -23.5t71.5 -8.5t86 -1q160 0 286.5 46t215 133t135.5 211.5t47 281.5q0 138 -43 257.5t-122.5 208t-192.5 139.5t-254 51 h-272q-15 0 -20 -6.5t-5 -20.5v-1218v-5z" />
<glyph unicode="E" horiz-adv-x="1264" d="M7 8v14v14q0 1 1 4.5t7 3.5h22q42 3 86 3.5t80 11t59 37t23 82.5v1054q0 39 -16 63.5t-42 39.5t-59 22.5t-67 12.5h-21q-5 0 -6.5 3t-1.5 5v24q0 2 1.5 5t6.5 3h951q18 0 26 -6.5t10 -28.5l18 -290q0 -5 -5 -7.5t-12 -2.5q-8 0 -12 2t-7 6q-7 10 -10 29.5t-6.5 43.5 t-10 50t-19.5 48t-35.5 38.5t-57.5 22.5h-417q-13 0 -13 -13v-517q0 -10 10 -10h346q25 0 49.5 6.5t43 23.5t30 47.5t11.5 78.5q0 8 8 8h24q8 0 8 -8v-428q0 -5 -3 -6.5t-5 -1.5h-24q-5 0 -6.5 3t-1.5 5q0 56 -11.5 90.5t-30.5 54t-43.5 26t-51.5 6.5h-343q-10 0 -10 -10 v-487q0 -29 9 -46.5t24.5 -26.5t35.5 -12t42 -3h333q58 0 97 26.5t63 64.5t35.5 79t14.5 70q3 28 30 28q5 0 8.5 -4t3.5 -9l-33 -336q-2 -5 -5.5 -9.5t-8.5 -4.5h-1114q-6 0 -7 3.5t-1 4.5z" />
<glyph unicode="F" horiz-adv-x="1167" d="M86 8v24q0 2 1 5t7 3q11 0 28.5 4.5t26.5 8.5q43 19 70.5 50.5t27.5 76.5v1080q0 38 -21 60t-47.5 33t-50 14t-29.5 3h-4q-5 0 -6.5 3t-1.5 5v24q0 2 1.5 5t6.5 3h943q12 -2 18 -5.5t6 -17.5v-242q0 -12 -3.5 -15t-12.5 -3h-12q-2 1 -5.5 17.5t-9.5 39t-14.5 45 t-19.5 35.5q-14 15 -27 25t-29 16t-37 8t-51 2h-379q-20 0 -20 -20v-463q0 -23 24 -23h392q14 0 37 2.5t44.5 15t37 39t15.5 74.5q0 8 8 8h24q8 0 8 -8v-372q0 -5 -3 -6.5t-5 -1.5h-24q-5 0 -6.5 3t-1.5 5q0 54 -15.5 83.5t-36.5 43.5t-43.5 16.5t-36.5 2.5h-394 q-12 0 -18 -7.5t-6 -19.5v-514q0 -27 10.5 -45.5t29 -32t43.5 -23.5t55 -19q15 -5 32 -9t28 -4q6 0 7 -3.5t1 -4.5v-24q0 -2 -1.5 -5t-6.5 -3h-546q-5 0 -6.5 3t-1.5 5z" />
<glyph unicode="G" horiz-adv-x="1621" d="M115 717q0 101 27 194t76 174.5t117.5 148t150.5 114.5t175.5 74t192.5 26q79 0 155 -14t137 -31t100 -31t44 -14h12q8 0 12.5 1.5t8 3.5t7.5 3.5t12 1.5h25q2 0 6.5 -1.5t4.5 -9.5v-333q0 -11 -6.5 -15t-15.5 -4h-4q-9 1 -14 10t-8 20t-4.5 21t-2.5 15 q-100 313 -422 313q-90 0 -167 -25.5t-139.5 -70.5t-111 -106.5t-81 -134.5t-49.5 -153.5t-17 -162.5q0 -85 16.5 -169.5t49.5 -161t82 -142t113.5 -113.5t144 -75t173.5 -27q33 0 74 4t81 13.5t74.5 26t53.5 42.5v274q0 43 -10.5 76.5t-38.5 56.5t-76 35t-123 12 q-6 0 -8.5 5.5t-2.5 13.5q0 5 2.5 11.5t8.5 6.5h610q8 0 9.5 -6t1.5 -12q0 -5 -2 -10t-9 -9q-27 -11 -55.5 -19t-52.5 -21t-39.5 -35.5t-15.5 -61.5v-325q0 -8 -6.5 -13t-20.5 -11q-56 -27 -120 -49.5t-130.5 -39t-133.5 -26t-128 -9.5q-155 0 -290 51.5t-236 148 t-159 234.5t-58 310z" />
<glyph unicode="H" horiz-adv-x="1712" d="M60 8v24q0 2 1.5 5t6.5 3q31 0 62.5 4.5t57.5 19.5t42.5 43t16.5 76v1067q0 34 -11 57t-31 37.5t-48 21.5t-62 9q-8 0 -8 8v19q0 8 7 8h502q5 0 6.5 -3t1.5 -5v-19q0 -6 -8 -6q-30 0 -58 -5.5t-49 -20.5t-34 -42.5t-13 -72.5v-462q0 -10 3 -13t13 -3h788q10 0 13 3t3 13 v478q-2 9 -2.5 16.5t-1.5 14.5q-5 24 -29 41t-56.5 28t-68 16t-64.5 7q-8 0 -8 8v19q0 8 7 8h577q5 0 6.5 -3t1.5 -5v-19q0 -6 -8 -6q-30 0 -58.5 -5.5t-51 -20.5t-36 -42.5t-13.5 -72.5v-1055q0 -26 7.5 -46.5t23.5 -40.5q16 -22 52.5 -37t103.5 -17q8 0 8 -8v-24 q0 -8 -8 -8h-636q-5 0 -6.5 3t-1.5 5v24q0 2 1.5 5t6.5 3q30 0 73 4t83.5 17.5t69 39t28.5 69.5v477q0 10 -3 13t-13 3h-788q-10 0 -13 -3t-3 -13v-487q0 -34 15 -57t39.5 -37t56.5 -20t66 -6q6 0 7 -3t1 -5v-24q0 -2 -1 -5t-6 -3h-552q-5 0 -6.5 3t-1.5 5z" />
<glyph unicode="I" horiz-adv-x="699" d="M90 8v24q0 2 1.5 5t6.5 3q35 0 63.5 4.5t48.5 19.5t31 43t11 76v1067q0 34 -10.5 57t-30 37t-48 20t-63.5 6q-8 0 -8 8v24q0 8 8 8h501q5 0 6.5 -3t1.5 -5v-24q0 -2 -1.5 -5t-6.5 -3q-35 0 -63.5 -4.5t-48.5 -19.5t-31 -43t-11 -76v-1067q0 -34 10.5 -57t30 -37t48 -20 t63.5 -6q8 0 8 -8v-24q0 -3 -1 -5.5t-7 -2.5h-501q-5 0 -6.5 3t-1.5 5z" />
<glyph unicode="J" horiz-adv-x="693" d="M-250 -535q0 21 9.5 38t24 29t32.5 18.5t36 6.5q30 0 52 -7t38.5 -17.5t29 -23t26 -23t28 -17.5t35.5 -7q45 0 76.5 19t52 51.5t32 75.5t17 91.5t6.5 100t1 100.5v1350q0 38 -13.5 61.5t-38.5 36.5t-61 17.5t-81 4.5q-8 0 -8 8v24q0 8 8 8h543q5 0 6.5 -3t1.5 -5v-24 q0 -2 -1.5 -5t-6.5 -3q-31 0 -59 -4.5t-49 -19.5t-33.5 -43t-12.5 -76v-1237q0 -66 -14.5 -139t-42.5 -143t-69.5 -133t-96 -111t-122 -76t-146.5 -28q-29 0 -63.5 8t-64.5 22t-51 33t-21 42z" />
<glyph unicode="K" horiz-adv-x="1524" d="M40 8v19q0 8 8 8q34 1 69.5 8.5t64.5 22t47.5 37.5t18.5 57v1090q0 34 -18.5 57t-47.5 37.5t-64.5 21.5t-69.5 9q-8 0 -8 8v19q0 8 7 8h588q5 0 6.5 -3t1.5 -5v-19q0 -6 -8 -6q-29 0 -62.5 -5t-62.5 -19t-48 -39t-19 -66v-441q0 -42 3 -65t14 -23q6 0 11.5 0.5t10.5 3.5 q57 26 105 65.5t89 86t77 98t69 102.5q18 28 38 56.5t36.5 56t27.5 53t11 49.5q0 31 -13 48t-33 25t-43 10t-43 2h-10q-5 0 -6.5 3t-1.5 5v19q0 2 1 5t7 3h578q5 0 6.5 -3t1.5 -5v-19q0 -3 -3 -7.5t-9 -4.5q-61 -2 -111.5 -11.5t-92.5 -30.5t-77.5 -56t-66.5 -87 q-53 -90 -97 -154.5t-78.5 -109t-61 -72t-44.5 -46t-28.5 -30t-12.5 -22.5q5 -10 23 -26.5t47.5 -43.5t70.5 -67t93 -98.5t115 -138t136 -183.5q35 -51 88 -89.5t119 -52.5q34 -8 54 -12t32 -5.5t19.5 -1.5t16.5 -1q5 0 6.5 -3t1.5 -5v-17q0 -8 -8 -8h-654q-8 0 -8 8v19 q0 7 8 8q13 2 36.5 4t46 8t39.5 19t17 38q-2 17 -22.5 50t-50.5 72.5t-64.5 80.5t-63.5 74q-35 39 -73.5 86.5t-80 89.5t-84.5 70t-85 28h-19q-8 0 -9 -3.5t-1 -10.5v-468q0 -45 18.5 -72.5t47 -42.5t62.5 -20t64 -5q5 0 6.5 -3t1.5 -5v-17q0 -2 -1.5 -5t-6.5 -3h-588 q-7 0 -7 8z" />
<glyph unicode="L" horiz-adv-x="1239" d="M40 8v24q0 2 1 5t7 3h24q3 0 19.5 1.5t38 5t44.5 9.5t39 15q35 20 52 51.5t17 70.5v1058q0 36 -23.5 59t-56 36.5t-66 18.5t-53.5 5h-22q-5 0 -6.5 3.5t-1.5 4.5v24q0 2 1.5 5t6.5 3h677q5 0 6.5 -3t1.5 -5v-24q0 -2 -1.5 -5t-6.5 -3h-43q-56 0 -104 -9t-78 -20 q-23 -8 -29.5 -26.5t-6.5 -63.5v-1109q2 -17 18 -32t36 -15h395q35 0 66.5 15t58.5 38.5t50 51.5t42 54t34 46.5t26 29.5q5 3 9.5 6t9.5 3q10 0 10 -13q0 -6 -3 -12l-151 -296q-4 -8 -9 -13t-12 -5h-1009q-5 0 -6.5 3t-1.5 5z" />
<glyph unicode="M" horiz-adv-x="1929" d="M26 8v24q0 2 1.5 5t6.5 3q66 0 102.5 18.5t54 50t21.5 72.5t6 85q6 129 14.5 253.5t17 246t14 239.5t5.5 234v37q0 23 -15 40.5t-35.5 29.5t-41.5 18t-33 6q-8 0 -8 8v24q0 2 1 5t7 3h289q11 -2 18 -7.5t13 -14.5l469 -1045q5 -7 8 -12t10 -5q11 1 15.5 5.5t7.5 12.5 l464 1026q10 19 19 29.5t19 10.5h291q6 0 7 -3t1 -5v-24q0 -2 -1.5 -5t-6.5 -3q-2 0 -23.5 -4t-47 -15.5t-46.5 -33t-21 -56.5l60 -1105q1 -29 15.5 -49t35.5 -33t44.5 -19.5t44 -10t35 -4t15.5 -0.5q5 0 6.5 -3t1.5 -5v-24q0 -2 -1.5 -5t-6.5 -3h-568q-8 0 -8 8v24q0 8 8 8 q24 0 54.5 2.5t58.5 11.5t47 26.5t19 46.5l-53 955q-1 10 -6 10q-4 0 -7 -9l-497 -1076q-4 -7 -23 -7q-6 0 -13 1t-9 7l-490 1078l-4 10q-2 4 -6 4q-7 0 -7 -13q0 -30 -3.5 -99t-9 -158t-11.5 -189t-11.5 -193t-9 -169.5t-3.5 -118.5v-41q4 -19 20 -34t40 -25t53 -15t61 -5 q5 0 5.5 -3t0.5 -5v-24q0 -8 -6 -8h-467q-8 0 -8 8z" />
<glyph unicode="N" horiz-adv-x="1747" d="M60 8v24q0 8 8 8h25q14 0 27.5 1t24.5 2t17 4q25 12 41 32t24.5 46t11.5 57t3 66v1039q0 27 -21.5 43.5t-50 25t-58 11.5t-44.5 3q-5 0 -6.5 3t-1.5 5v24q0 2 1.5 5t6.5 3h366l949 -1049q5 -5 7 -7.5t5 -2.5q4 0 5 3t1 6v689q0 99 -7 162t-26 98t-51 48t-82 13h-51 q-5 0 -6.5 3t-1.5 5v24q0 2 1.5 5t6.5 3h520q6 0 7 -3t1 -5v-24q0 -2 -1.5 -5t-6.5 -3q-20 0 -51.5 -8t-61.5 -23t-51.5 -37t-21.5 -50v-1223q0 -22 -6 -31.5t-31 -9.5q-20 0 -31 9t-26 26l-1031 1143q-7 7 -10 8.5t-8 1.5t-5 -10v-998q0 -28 13.5 -48.5t34.5 -35t46.5 -23 t50 -13.5t44 -6.5t29.5 -1.5q5 0 7 -4q1 -2 1 -4v-24q0 -2 -1.5 -5t-6.5 -3h-520q-2 0 -5 2.5t-3 5.5z" />
<glyph unicode="O" horiz-adv-x="1770" d="M110 714q0 104 28 199.5t79 177.5t124 148.5t163 114t195.5 73t221.5 25.5q100 0 194 -25.5t176 -71.5t149.5 -111.5t116.5 -145.5t76 -172.5t27 -192.5q0 -94 -26 -187t-75 -177.5t-119 -156.5t-157.5 -125.5t-190.5 -83.5t-218 -30q-45 0 -119 11.5t-159 42 t-171.5 83.5t-156.5 135t-114 197.5t-44 271.5zM320 752q0 -84 18.5 -169t53.5 -163t87 -146.5t118.5 -118.5t148 -79t175.5 -29q135 0 234.5 53.5t164.5 142.5t97 204.5t32 238.5q0 135 -40.5 260.5t-117.5 222.5t-188.5 155.5t-253.5 58.5q-85 0 -157.5 -25t-131.5 -68.5 t-104 -103.5t-75 -130.5t-45.5 -147.5t-15.5 -156z" />
<glyph unicode="P" horiz-adv-x="1211" d="M40 1393q0 5 2 10t11 7h7q6 0 19.5 0.5t37 1t61.5 1.5q111 2 221.5 7t221.5 5h101q87 -6 163.5 -39t132.5 -88t88.5 -129t32.5 -161q0 -79 -32.5 -154.5t-84 -134.5t-115.5 -95.5t-126 -37.5l-300 12h-8q-7 0 -10 -2t-4 -4t-1 -8v-411q0 -27 7 -47t23.5 -34.5t43 -23.5 t64.5 -14q6 -1 19 -3t29 -4.5t30.5 -4.5t23.5 -2q6 0 7 -3t1 -5v-24q0 -2 -1.5 -5t-6.5 -3h-598q-5 0 -6.5 4t-1.5 16v12q0 1 1 4.5t7 3.5q12 0 31.5 6t29.5 8q57 13 79.5 42.5t22.5 73.5v1056q0 50 -10 78.5t-29.5 43t-49 18t-68.5 3.5h-45q-11 0 -16 7.5t-5 16.5zM458 711 l2 -30q1 -8 4.5 -14.5t14.5 -7.5q4 0 14.5 -1t24.5 -2t30.5 -2t32.5 -1q82 0 148.5 29.5t113 80.5t71.5 120t25 149q0 82 -25 146.5t-71 108t-110.5 66.5t-143.5 23h-26l-24 -2q-12 0 -25.5 -0.5t-30.5 -1.5q-6 0 -15.5 -2.5t-9.5 -13.5v-645z" />
<glyph unicode="Q" horiz-adv-x="1767" d="M110 707q0 165 60 301.5t165 235t248.5 152.5t310.5 54q107 0 205 -24.5t182.5 -69.5t154 -110.5t118.5 -146.5t75.5 -177.5t26.5 -204.5q0 -104 -28.5 -195.5t-80 -171.5t-123 -148t-157.5 -125q-6 -4 -29 -15.5t-48.5 -24t-46 -23.5t-20.5 -14q0 -4 6 -6 q56 -40 108.5 -79.5t95 -73t72 -57t40.5 -32.5q40 -32 82.5 -62t89.5 -48q7 -3 22 -6t30 -7t26.5 -9t11.5 -11q0 -14 -11.5 -21.5t-29.5 -11t-39 -4t-39 -0.5q-74 0 -135.5 20t-124.5 54q-35 23 -67.5 45t-64 44.5t-64.5 46.5t-70 52q-28 21 -51.5 43.5t-47 42t-49 34 t-56.5 19.5q-19 3 -42 5t-43 5q-139 21 -260 82.5t-210.5 156t-141 218t-51.5 267.5zM318 748q2 -88 22 -174t57 -164t90 -144.5t120.5 -115t149.5 -76t177 -27.5q109 0 204 45t165 127.5t110 199.5t40 260q0 132 -36 255t-109.5 220t-185.5 158.5t-264 70.5 q-125 0 -225 -51t-170 -137.5t-107.5 -202t-37.5 -244.5z" />
<glyph unicode="R" horiz-adv-x="1419" d="M40 1378v24q0 2 1 4.5t7 3.5h4q4 0 15 0.5t32 1t59 1.5q111 2 221.5 7t221.5 5h101q86 -6 162 -39t132.5 -88t89 -129t32.5 -161q0 -62 -18 -110.5t-49.5 -86.5t-75 -67t-94.5 -52l303 -495q38 -63 92 -110t120 -73q8 -2 9.5 -5.5t1.5 -8.5q0 -15 -8 -20t-25 -5 q-85 0 -158 23t-139 82q-32 29 -61 66.5t-58 84.5l-259 406l-238 11h-8q-7 0 -10 -2t-4 -4t-1 -8v-461q0 -27 7 -47t23.5 -34.5t43 -23.5t64.5 -14q6 -1 17.5 -3t25 -4.5t26.5 -4.5t22 -2q6 0 7 -3t1 -5v-24q0 -2 -1.5 -5t-6.5 -3h-615q-5 0 -6.5 4t-1.5 16v12q0 1 1 4.5 t7 3.5t19 2t27 4t26 4.5t17 3.5q57 13 79.5 42.5t22.5 73.5v1056q0 50 -21 79t-48.5 43.5t-53 18t-34.5 3.5h-38q-5 0 -6.5 3t-1.5 5zM438 748l2 -30q1 -8 4.5 -14.5t14.5 -7.5q4 0 14.5 -1t24.5 -2t30.5 -2t32.5 -1q99 0 167.5 24t111 68t61 107.5t18.5 142.5q0 82 -27 146 t-74 107.5t-111 66t-138 22.5h-26l-24 -2q-12 0 -25.5 -0.5t-30.5 -1.5q-6 0 -15.5 -2.5t-9.5 -13.5v-606z" />
<glyph unicode="S" horiz-adv-x="1026" d="M90 316q0 11 2.5 16.5t16.5 5.5q7 0 14.5 -9.5t14.5 -23t12 -27t7 -20.5q52 -111 137 -168t212 -57q54 0 103 17t86.5 49t59.5 77t22 102q0 71 -28.5 128t-74.5 105t-105 90.5t-121 84.5t-121 86.5t-105 96.5t-74.5 114.5t-28.5 141.5q0 76 32.5 136.5t85.5 103t120 65 t136 22.5q37 0 74.5 -6.5t74 -15.5t73.5 -19.5t73 -19.5l56 7q5 0 7.5 -7.5t2.5 -14.5l26 -213l2 -10q2 -10 2 -12q0 -9 -15 -9q-6 0 -12.5 1.5t-8.5 3.5q-3 3 -7 13q-3 9 -9 21l-12 24q-6 12 -11 20q-22 38 -55.5 70.5t-73.5 56t-84.5 37t-89.5 13.5q-39 0 -80 -14 t-74.5 -38.5t-55 -59.5t-21.5 -77q0 -66 27.5 -120t72.5 -100t103 -88t118.5 -84.5t119.5 -88.5t106.5 -101.5t78 -122.5t35.5 -152q0 -89 -37.5 -158.5t-98.5 -117t-139 -72.5t-159 -25q-68 0 -118.5 10t-87 22.5t-61.5 22.5t-42 10q-6 0 -9 -1l-49 -10q-13 0 -16 21 q-11 94 -17 146t-8.5 78t-3 33.5t-0.5 10.5z" />
<glyph unicode="T" horiz-adv-x="1502" d="M64 1073v33l37 312q2 11 5.5 21t18.5 10q7 0 12 -4t9.5 -9.5t9 -10.5t10.5 -7q12 -5 22.5 -6.5t23.5 -1.5h1078q13 0 23.5 1.5t22.5 6.5q6 2 10.5 7t9 10.5t9.5 9.5t12 4q15 0 18.5 -10t5.5 -21l37 -312v-33q0 -4 -6 -4h-18q-5 0 -7 3q-2 2 -4 14.5t-4 21.5 q-7 31 -15 64.5t-23 62.5t-38.5 50.5t-60.5 29.5h-385q-12 -2 -20.5 -4.5t-8.5 -23.5v-1107q0 -30 15 -53.5t40.5 -41.5t60 -29t73.5 -15q11 -1 28 -1h29q5 0 6.5 -3t1.5 -5v-24q0 -2 -1.5 -5t-6.5 -3h-687q-5 0 -6.5 3t-1.5 5v24q0 2 1.5 5t6.5 3h29q18 0 28 1 q39 4 73.5 15t60 29t40.5 41.5t15 53.5v1107q0 21 -8.5 23.5t-20.5 4.5h-384q-37 -8 -60.5 -29.5t-38.5 -50.5t-23 -62.5t-15 -64.5q-2 -9 -4 -21.5t-4 -14.5q-2 -3 -7 -3h-18q-6 0 -6 4z" />
<glyph unicode="U" horiz-adv-x="1672" d="M36 1378v24q0 8 7 8h542q5 0 6.5 -3t1.5 -5v-24q0 -2 -1.5 -5t-6.5 -3q-30 0 -61.5 -4t-58 -18t-43 -40.5t-16.5 -71.5v-716q0 -100 35 -182.5t97 -142t147.5 -92t187.5 -32.5t191 28t154.5 83t103 135.5t37.5 185.5v636q0 34 -2.5 70t-16.5 68t-44 55.5t-85 32.5 q-25 4 -41.5 4.5t-21.5 0.5q-8 0 -8 8v24q0 8 8 8h492q5 0 6.5 -3t1.5 -5v-24q0 -2 -2 -5t-6 -3q-36 0 -63.5 -5.5t-41.5 -11.5q-17 -7 -31 -20.5t-23.5 -30t-14.5 -34t-5 -32.5v-655q0 -141 -37 -253.5t-111.5 -191t-187.5 -121t-264 -42.5q-72 0 -148.5 12t-149 36.5 t-136.5 63t-112 91.5t-76 121t-28 153v800q0 29 -13.5 51.5t-36.5 37.5t-53 23t-64 8q-8 0 -8 8z" />
<glyph unicode="V" horiz-adv-x="1505" d="M5 1378v24q0 8 8 8h590q6 0 7 -2.5t1 -5.5v-24q0 -2 -1.5 -5t-6.5 -3h-15q-25 -4 -57.5 -8t-61 -14.5t-48 -31t-19.5 -56.5q0 -13 4.5 -30t9.5 -28l379 -922q1 -2 3 -4l3 -3q2 -2 4 -3q5 0 11 11l348 942q7 20 7 40q0 35 -23 60.5t-64 32.5q-6 1 -19.5 3t-28.5 4.5 t-29 4.5t-20 2q-8 0 -8 8v24q0 2 1 5t7 3h505q6 0 7 -3t1 -5v-24q0 -3 -1 -5.5t-7 -2.5h-37q-55 -11 -90 -42.5t-58 -74t-39 -91t-33 -93.5l-393 -1061q-9 -25 -22 -30t-36 -5h-47q-24 0 -31 22l-527 1277q-9 22 -24 37.5t-31 26t-30.5 16t-23.5 7.5q-7 2 -16 4t-17.5 3.5 t-15.5 2.5t-8 1q-8 0 -8 8z" />
<glyph unicode="W" horiz-adv-x="2262" d="M-8 1378v24q0 8 8 8h570q6 0 7 -2.5t1 -5.5v-24q0 -2 -1.5 -5t-6.5 -3h-18q-39 0 -62.5 -9t-36.5 -22.5t-17 -28.5t-4 -27q0 -22 6.5 -41t11.5 -40l383 -922q5 -10 19 -10q6 0 9 3t6 8l221 520l-195 471q-6 15 -25.5 29t-43 25.5t-46 19.5t-34.5 11q-14 5 -32 9t-23 4 q-8 0 -8 8v24q0 8 8 8h916q6 0 7 -3t1 -5v-24q0 -3 -1 -5.5t-7 -2.5h-37q-36 0 -62 -10t-46.5 -31t-37.5 -53t-35 -75l-130 -305l256 -616q5 -10 19 -10q6 0 9 3t6 8l423 995q12 28 12 47q0 26 -26.5 36.5t-88.5 10.5h-62q-8 0 -8 8v24q0 2 1 5t7 3h445q6 0 7 -3t1 -5v-24 q0 -3 -1 -5.5t-7 -2.5h-47q-24 0 -41 -9.5t-31 -28.5t-27.5 -48.5t-30.5 -68.5l-514 -1207q-11 -24 -23 -29.5t-35 -5.5h-47q-24 0 -32 22l-43 107l-227 547l-273 -641q-11 -24 -23 -29.5t-35 -5.5h-47q-24 0 -31 23l-530 1276q-6 15 -25.5 29t-43 25.5t-46 19.5t-34.5 11 q-7 2 -17 4.5t-19.5 4.5t-17.5 3t-10 1q-8 0 -8 8zM1112 1283q0 -22 6.5 -41t11.5 -40l63 -153l97 227q12 28 12 47q0 23 -20 33.5t-66 12.5q-34 -2 -54.5 -11.5t-31.5 -22t-14.5 -27t-3.5 -25.5z" />
<glyph unicode="X" horiz-adv-x="1611" d="M5 8v11v13q0 8 8 8h39q57 7 103 35t85.5 66t74 82t68.5 82l315 415l-305 393q-29 37 -56 75t-58.5 71t-69.5 58t-88 37q-10 4 -24.5 7t-30 5t-29.5 3t-24 1q-5 0 -6.5 3t-1.5 5v24q0 2 1.5 5t6.5 3h659q6 0 7 -3t1 -5v-24q0 -2 -1 -5t-7 -3q-36 0 -67 -1t-54 -6.5 t-36 -18t-13 -35.5q0 -8 6.5 -22.5t10.5 -20.5l278 -369q6 -6 7 -8t7 -2q9 0 16.5 7.5t14.5 15.5l270 346q19 23 19 51q0 24 -16.5 36.5t-39.5 18.5t-49 7t-45 1q-8 0 -8 8v25q0 2 1 4.5t7 2.5h537q6 0 7 -2.5t1 -5.5v-24q0 -3 -1 -5.5t-7 -2.5q-52 0 -96.5 -15.5t-83 -41 t-73 -58.5t-65.5 -69l-310 -405q1 -1 4 -6.5t17 -25t42.5 -58.5t80.5 -108t131.5 -173.5t196.5 -255.5q13 -17 30.5 -33t37.5 -30t41.5 -24t42.5 -14q12 -6 27.5 -7t30 -2t24.5 -5t10 -16q0 -16 -12.5 -19.5t-26.5 -3.5h-551q-5 0 -6.5 3t-1.5 5v24q0 2 1 4q1 3 7 4 q9 2 31 1.5t44 3.5t39 16t17 39q0 8 -4.5 19t-7.5 16l-352 465q-4 5 -7 7.5t-10 2.5q-8 0 -10.5 -2.5t-6.5 -7.5l-345 -455q-9 -12 -11.5 -20.5t-2.5 -19.5q0 -31 21.5 -43t50 -15t56 -2t38.5 -5q8 -4 8 -8v-24q0 -2 -1.5 -5t-6.5 -3h-543q-5 0 -6.5 3t-1.5 5z" />
<glyph unicode="Y" horiz-adv-x="1527" d="M4 1392q0 5 2 11.5t13 6.5h572q11 0 14 -5t3 -13q0 -22 -17 -22q-20 -2 -44 -4.5t-45 -10t-35.5 -22t-14.5 -41.5q0 -24 12 -43l338 -540q11 -16 13.5 -20.5t10.5 -4.5q7 0 13 8t14 21l270 459q12 24 27.5 51.5t15.5 56.5q0 28 -12 44.5t-30 25.5t-40 13t-43 7 q-11 1 -14 7t-3 15q0 7 2.5 12.5t14.5 5.5h467q8 0 11 -6.5t3 -11.5q0 -10 -4.5 -15t-12 -7.5t-16.5 -4t-18 -3.5q-50 -12 -86.5 -37t-71.5 -63q-5 -5 -14.5 -16t-10.5 -13l-395 -680v-373q0 -54 30.5 -85t107.5 -41q7 -1 18.5 -2.5t22.5 -4t19 -6.5t8 -10v-11 q0 -14 -10 -17t-24 -3h-539q-14 0 -24 3t-10 17v10q0 6 7 10.5t17.5 7t22.5 4t21 2.5q76 8 107 37.5t31 88.5v331q0 4 -0.5 7t-2.5 8l-409 652q-17 27 -36.5 54.5t-43 52t-51 43t-59.5 26.5q-5 1 -16 3.5t-23 4.5t-23 4t-16 3q-10 1 -12 7.5t-2 15.5z" />
<glyph unicode="Z" horiz-adv-x="1460" d="M77 43q0 11 4 22.5t12 20.5l935 1209q4 5 4 10q0 8 -7 9t-13 1h-607q-23 0 -48 -6.5t-47.5 -19t-40 -31.5t-26.5 -43q-3 -11 -10 -41.5t-19 -91.5q-2 -10 -6 -14.5t-21 -4.5q-12 0 -16 6l15 307q0 3 1 10.5t3 12.5q3 8 11 10q4 1 8 1h1086q3 0 5.5 -5t5 -11.5t4 -14 t1.5 -12.5q0 -21 -13 -40l-899 -1163q-3 -5 -11.5 -17t-8.5 -20q0 -14 16 -20.5t30 -6.5h705q28 0 51 11t42 27q30 24 49 57t30.5 69.5t16.5 74.5t8 74q2 11 7.5 13t14.5 2q5 0 10 -3.5t5 -8.5v-47l-21 -310q-1 -11 -1 -21.5t-2.5 -18.5t-8 -13.5t-17.5 -5.5h-1219 q-7 0 -10.5 4.5t-5 11.5t-2 14.5t-0.5 12.5z" />
<glyph unicode="[" horiz-adv-x="740" d="M205 -342v2073h497v-86h-271q-73 0 -73 -73v-1755q0 -73 73 -73h294v-86h-520z" />
<glyph unicode="\" horiz-adv-x="665" d="M660 -27l-523.968 1479h-129.992l524.968 -1479h128.992z" />
<glyph unicode="]" horiz-adv-x="740" d="M15 -256h296q38 0 55 17.5t17 55.5v1755q0 38 -17 55.5t-55 17.5h-274v86h498v-2073h-520v86z" />
<glyph unicode="^" d="M76 679l421 700h63l412 -700h-148l-295 507l-305 -507h-148z" />
<glyph unicode="_" horiz-adv-x="1014" d="M-16 -205h1046v-115h-1046v115z" />
<glyph unicode="`" horiz-adv-x="700" d="M140 1378q0 29 20.5 51.5t51.5 22.5q18 0 37 -11.5t38 -37.5l213 -295q4 -4 4 -6t-4 -6l-22 -29q-4 -4 -8 -4q-2 0 -6 4l-269 217q-20 17 -37.5 40t-17.5 54z" />
<glyph unicode="a" horiz-adv-x="885" d="M70 179q0 39 12.5 70t46.5 58t92.5 51t151.5 48q50 13 80.5 28t56.5 29q17 9 19.5 16t2.5 13v192q0 33 -10 64.5t-29.5 55.5t-48.5 39t-67 15q-18 0 -39.5 -7t-41 -22t-32.5 -38t-13 -56q0 -3 0.5 -9t1.5 -12.5t2 -11.5t1 -6q-2 -4 -21.5 -14.5t-44.5 -22t-48.5 -21.5 t-33.5 -12q-11 0 -13.5 11.5t-2.5 22.5q0 43 23 90t65.5 86.5t102 65t133.5 25.5q57 0 106.5 -18.5t86 -50.5t58 -75t21.5 -91v-527q0 -26 24.5 -41.5t55.5 -15.5q18 0 31 5t22.5 11.5t16 11.5t12.5 5q8 0 9 -6.5t1 -11.5q0 -17 -4.5 -24.5t-15.5 -15.5q-49 -36 -82 -57.5 t-56 -33t-38 -15.5t-27 -4q-21 0 -36 11t-26.5 27t-19.5 34.5t-13.5 34.5t-8.5 26t-5 9q-60 -45 -98 -72.5t-64 -42.5t-45 -20t-41 -5q-38 0 -75.5 14.5t-67.5 41t-48.5 64t-18.5 84.5zM227 199q0 -27 10.5 -50t27.5 -39.5t38.5 -25.5t44.5 -9q21 0 52 10.5t60.5 28t50.5 40 t21 45.5v203q0 11 -8 11q-2 0 -4 -1l-232 -108q-14 -10 -25.5 -18.5t-19.5 -20t-12 -27t-4 -39.5z" />
<glyph unicode="b" horiz-adv-x="1099" d="M12 1499q0 5 3 10t12 10l255 120q4 2 8.5 4t6.5 2q17 0 17 -24v-784q0 -10 2.5 -20.5t12.5 -10.5q3 0 23.5 10t43.5 22q27 14 60 33q40 17 69.5 28t51.5 17t38.5 8.5t31.5 2.5q79 0 142 -40t107.5 -104.5t68.5 -145.5t24 -162q0 -100 -33 -191t-95.5 -160t-152 -110 t-201.5 -41q-60 0 -105 4.5t-82.5 12t-72.5 17.5t-75 20q-9 2 -11.5 8.5t-2.5 15.5v1348q0 24 -13 37.5t-33 20.5t-43 11.5t-44 10.5q-6 2 -9.5 5.5t-3.5 14.5zM314 244q5 -47 26.5 -83t54.5 -60.5t74.5 -37t85.5 -12.5q72 0 126 34t90.5 87t55 119t18.5 131q0 66 -18 134 t-56 123.5t-97 90.5t-141 35q-55 0 -107.5 -18.5t-99.5 -45.5q-8 -5 -10 -10.5t-2 -13.5v-473z" />
<glyph unicode="c" horiz-adv-x="934" d="M90 395q1 151 39 253.5t105.5 164.5t159 88.5t199.5 26.5q32 0 68.5 -1.5t70.5 -9t62.5 -25t46.5 -48.5q5 -8 9.5 -18t4.5 -19q0 -38 -23.5 -54t-57.5 -16q-25 0 -44.5 9.5t-36.5 23.5t-32.5 30.5t-32.5 30.5t-37 23.5t-45 9.5q-48 0 -87.5 -17.5t-71.5 -47.5t-55 -69 t-39 -82t-23.5 -86.5t-7.5 -82.5q0 -78 17.5 -149.5t56.5 -126t101 -87t150 -32.5q45 0 86 15t76 40q16 11 31.5 26t28 29t21 23.5t11.5 9.5q9 0 16 -6t7 -14q0 -4 -0.5 -10t-5.5 -11q-72 -100 -168 -156.5t-217 -56.5q-87 0 -157.5 35t-121 93.5t-77.5 134.5t-27 159z" />
<glyph unicode="d" horiz-adv-x="1090" d="M85 418q0 98 36.5 185.5t101 153.5t151.5 105t188 39q31 0 61.5 -3.5t61.5 -12.5q12 -3 29 -9t34 -6q3 0 5 1q1 0 3 1l4 11v516q0 24 -13 37.5t-33 20.5t-43 11.5t-44 10.5q-6 2 -9.5 5.5t-3.5 14.5q0 5 3 10t12 10l255 120q4 2 8.5 4t6.5 2q17 0 17 -24v-1424 q5 -44 25 -63t65 -19l58 4q4 0 5 -5.5t1 -11.5q0 -2 -2.5 -5t-12.5 -8l-266 -110q-2 -1 -10 -3.5t-9 -2.5q-7 0 -8.5 8.5t-1.5 16.5v91q0 10 -7 10q-3 0 -9 -3q-35 -20 -72 -42t-75.5 -40t-79 -29.5t-82.5 -11.5q-90 0 -156 40t-109 103.5t-64 143t-21 158.5zM236 463 q0 -72 19.5 -141.5t59.5 -123.5t99.5 -87t139.5 -33q7 0 25.5 3.5t41.5 9t47.5 13.5t45 17.5t33.5 19t13 19.5v516q0 3 -2 10t-4 10q-2 2 -9.5 12t-10.5 13q-37 51 -89.5 80.5t-115.5 29.5q-75 0 -130 -33t-91 -85.5t-54 -118.5t-18 -131z" />
<glyph unicode="e" horiz-adv-x="930" d="M70 405q0 98 28 192t82.5 167.5t135.5 118t187 44.5q53 0 98 -19t81.5 -50t64.5 -70.5t47 -79t28.5 -76t9.5 -62.5q0 -43 -21 -43h-580q-10 0 -13.5 -18t-3.5 -44q0 -84 25 -153.5t68.5 -119t101.5 -76.5t123 -27q64 0 131.5 28t133.5 90q2 2 5 2h5q6 0 11.5 -9.5 t10.5 -12.5q-32 -39 -75.5 -77.5t-94 -69t-104 -49t-105.5 -18.5q-84 0 -154 37.5t-120.5 98.5t-78 138.5t-27.5 157.5zM242 623q0 -8 5 -13.5t13 -5.5h377q26 0 26 23q0 39 -17.5 80t-46 74.5t-65.5 55t-77 21.5t-75.5 -20t-64 -51.5t-48 -71.5t-27.5 -80v-12z" />
<glyph unicode="f" horiz-adv-x="624" d="M40 16q0 9 10 13q13 6 37 9.5t48 14t42 33t18 66.5v606q0 11 -12 11h-109q-12 0 -23 7.5t-11 21.5q0 11 11.5 18t28.5 12.5t37.5 11t37.5 13.5t28.5 18.5t11.5 27.5v33q0 100 13.5 200.5t48.5 190.5t94 163.5t151 119.5q60 30 114 48t120 18q14 0 44 -6.5t61 -18.5 t54 -29.5t23 -39.5q0 -8 -2.5 -14t-5.5 -15l-41 -88q-2 -4 -7.5 -10t-11.5 -6q-2 0 -4.5 1.5t-12.5 9.5q-23 18 -47 36.5t-50 34t-54 25t-57 9.5q-68 0 -114.5 -18.5t-77 -49t-47 -69t-24.5 -79t-9.5 -79t-1.5 -67.5v-291q0 -6 2.5 -7t7.5 -1h195q28 0 36.5 -5.5t12.5 -20.5 q6 -23 9 -42.5t3 -41.5q0 -13 -5 -17t-21 -4h-227q-2 0 -7.5 -1t-5.5 -9v-587q0 -44 22 -72t57.5 -43.5t80 -21.5t88.5 -6q18 -2 18 -13q0 -5 -2.5 -10.5t-15.5 -5.5h-549q-10 2 -10 16z" />
<glyph unicode="g" horiz-adv-x="1148" d="M70 -405q0 53 25 87.5t63.5 65t84.5 64t88 85.5q-50 4 -92.5 21t-73.5 41t-49 53t-18 59q0 42 27 66.5t66 42t82 32.5t75 39q-112 44 -173 121.5t-61 181.5q0 79 33 147.5t91 119t136.5 79.5t169.5 29q85 0 154.5 -25t120.5 -73q66 0 129.5 6t138.5 6q23 0 30 -5t11 -19 q6 -23 9 -42.5t3 -41.5q0 -13 -5 -17t-20 -4h-222q6 -11 13 -23t13.5 -28.5t11 -38t4.5 -50.5q0 -68 -28.5 -131.5t-83.5 -113t-134.5 -79.5t-181.5 -30q-17 0 -30.5 1t-26 3t-26 6t-29.5 9q-15 -16 -40 -29.5t-49.5 -27.5t-42 -30.5t-17.5 -37.5q0 -46 82.5 -66t266.5 -21 q104 -1 176 -4.5t123 -13t85 -26.5t62 -45q44 -44 58 -88t14 -83t-18 -84.5t-54.5 -91t-91.5 -87t-129 -73.5t-167.5 -51t-206.5 -19q-95 0 -166 20t-117.5 52.5t-69.5 74.5t-23 87zM222 -323q0 -43 28.5 -86.5t77 -79t114.5 -57.5t141 -22q78 0 151 24t129 64t90 92.5 t34 110.5q0 34 -13.5 60t-36 44t-52.5 28.5t-63 13.5q-16 1 -50 2.5t-77 3t-91 2.5t-92 2.5t-79 3.5t-53 4q-26 -30 -53.5 -53t-51 -46t-38.5 -49t-15 -62zM278 603q0 -54 14 -113.5t45 -109t80.5 -82t119.5 -32.5q53 0 96.5 21t74 58.5t47 90.5t16.5 116q0 79 -19 140.5 t-53 104t-81.5 64.5t-103.5 22q-35 0 -76 -11.5t-76.5 -43t-59.5 -86t-24 -139.5z" />
<glyph unicode="h" horiz-adv-x="1124" d="M30 16q0 9 10 13q13 6 37 9.5t48 14t42 33t18 66.5v1247q0 24 -13 37.5t-33 20.5t-43 11.5t-44 10.5q-6 2 -9.5 5.5t-3.5 14.5q0 5 3 10t12 10l255 120q4 2 8.5 4t6.5 2q17 0 17 -24v-847q0 -4 1 -14t6 -10q7 0 10 3.5t9 9.5q29 33 58.5 62.5t61.5 52t69.5 35.5t83.5 13 q62 0 116.5 -14.5t95 -54t64 -109t23.5 -179.5v-417q0 -44 18 -66.5t42 -33t48 -14t37 -9.5q10 -4 10 -13q0 -14 -10 -16h-446q-10 2 -10 16q0 9 10 13q13 6 37 9.5t48 14t42 33t18 66.5v407q0 58 -3 109t-20.5 89t-56 59.5t-108.5 21.5q-36 0 -80 -17.5t-83 -47t-65 -68 t-26 -80.5v-473q0 -44 18 -66.5t42 -33t48 -14t37 -9.5q10 -4 10 -13q0 -14 -10 -16h-446q-10 2 -10 16z" />
<glyph unicode="i" horiz-adv-x="576" d="M60 16q0 9 10 13q13 6 37 9.5t48 14t42 33t18 66.5v529q0 24 -13 37.5t-33 20.5t-43 11.5t-44 10.5q-6 2 -9.5 5.5t-3.5 14.5q0 5 3 10t12 10l255 120q4 2 8.5 4t6.5 2q17 0 17 -24v-751q0 -44 18 -66.5t42 -33t48 -14t37 -9.5q10 -4 10 -13q0 -14 -10 -16h-446 q-10 2 -10 16zM174 1307q0 46 30 73t76 27q19 0 36 -9t30 -23.5t20.5 -32t7.5 -35.5q0 -20 -7.5 -37.5t-20 -31.5t-29.5 -22t-35 -8q-45 0 -76.5 26t-31.5 73z" />
<glyph unicode="j" horiz-adv-x="577" d="M-247 -512q0 15 6.5 31t18.5 28.5t28.5 20.5t36.5 8q2 0 6.5 -1.5t18 -9.5t38.5 -26t68 -51q20 -15 50.5 -23t84.5 -8q34 8 55 33.5t32.5 58.5t15 69t3.5 65v998q0 24 -13 37.5t-33 20.5t-43 11.5t-44 10.5q-6 2 -9.5 5.5t-3.5 14.5q0 5 3 10t12 10l255 120q4 2 8.5 4 t6.5 2q17 0 17 -24v-1030q0 -47 -7 -97t-21.5 -99t-37.5 -94.5t-55 -82.5q-32 -43 -67 -70.5t-75.5 -43t-89 -21t-106.5 -5.5q-24 0 -51 11t-50.5 29t-39.5 41t-18 47zM160 1307q0 46 30 73t77 27q19 0 36 -9t30 -23.5t20.5 -32t7.5 -35.5q0 -20 -7.5 -37.5t-20 -31.5 t-29.5 -22t-35 -8q-45 0 -77 26t-32 73z" />
<glyph unicode="k" horiz-adv-x="1096" d="M44 16q0 9 10 13q13 6 37 9.5t48 14t42 33t18 66.5v1247q0 24 -13 37.5t-33 20.5t-43 11.5t-44 10.5q-6 2 -9.5 5.5t-3.5 14.5q0 5 3 10t12 10l255 120q4 2 8.5 4t6.5 2q17 0 17 -24v-998q8 -29 21 -34t26 -5q17 0 43.5 13.5t57 34.5t61 47t55 51.5t40 47t15.5 33.5 q0 20 -19 25.5t-42.5 8t-42.5 8t-19 24.5q0 14 13 18.5t28 4.5h381h10t11.5 -3t9.5 -7.5t4 -12.5q0 -12 -23 -19t-57 -14.5t-71.5 -19t-65.5 -33.5l-287 -224q0 -8 7 -17.5t12 -14.5l411 -433q26 -27 53 -40t49 -19.5t36 -10.5t14 -14q0 -5 -2 -11.5t-14 -6.5h-439 q-7 0 -8.5 5.5t-1.5 11.5q0 7 10 12t25.5 8t30 8.5t24.5 14.5t10 26q0 11 -15 29t-28 35l-309 327q0 1 -1 2h-1q-6 0 -9 -15t-3 -34v-278q0 -44 18 -66.5t42 -33t48 -14t37 -9.5q10 -4 10 -12q0 -6 -2 -11.5t-8 -5.5h-446q-10 2 -10 16z" />
<glyph unicode="l" horiz-adv-x="521" d="M20 16q0 9 10 13q13 6 37 9.5t48 14t42 33t18 66.5v1247q0 24 -13 37.5t-33 20.5t-43 11.5t-44 10.5q-6 2 -9.5 5.5t-3.5 14.5q0 5 3 10t12 10l255 120q4 2 8.5 4t6.5 2q17 0 17 -24v-1469q0 -44 18 -66.5t42 -33t48 -14t37 -9.5q10 -4 10 -13q0 -14 -10 -16h-446 q-10 2 -10 16z" />
<glyph unicode="m" horiz-adv-x="1732" d="M42 16q0 10 10 14q13 6 37 9.5t48 14t42 33t18 67.5v576q0 24 -13 37.5t-33 20.5t-43 11.5t-44 10.5q-6 2 -9.5 5.5t-3.5 14.5q0 5 3 10t12 10l255 120q4 2 8.5 4t6.5 2q17 0 17 -24v-166q1 -6 8 -6q6 0 14 4q45 24 88 49.5t86.5 46.5t87.5 34t89 13t76 -11t52 -28.5 t34.5 -38t23.5 -39.5q1 -3 4 -7.5t7.5 -9.5t9 -8.5t9.5 -3.5q8 1 14.5 3.5t14.5 5.5q64 33 111 55.5t81 38t57.5 24t41.5 13t32 5.5t29 1q49 0 85 -21t60.5 -55.5t40 -79t23.5 -91t11 -92t3 -82.5q0 -69 -4.5 -138.5t-5.5 -153.5v-58q0 -30 11.5 -50t29 -33t38.5 -19.5 t41 -10.5t36.5 -6.5t25.5 -6.5q10 -4 10 -14q0 -14 -10 -16h-482q-10 2 -10 16q0 10 10 14q13 6 37 9.5t48 15t41.5 36.5t17.5 73q5 31 6.5 68.5t1.5 82.5t-1 96.5t-1 114.5q0 49 -4.5 99.5t-22 92t-51.5 68t-94 26.5q-10 0 -25 -2.5t-41.5 -11.5t-68.5 -27t-106 -49 q-8 -5 -16.5 -11.5t-9.5 -16.5v-538q0 -45 18 -68.5t42 -34t48 -14t37 -9.5q10 -4 10 -14q0 -14 -10 -16h-446q-10 2 -10 16q0 10 10 14q13 6 37 9.5t48 14t42 34t18 68.5v498q0 157 -194 157q-23 0 -58 -12.5t-71.5 -31.5t-68 -40t-46.5 -39v-532q0 -45 18 -68.5t42 -34 t48 -14t37 -9.5q10 -4 10 -14q0 -14 -10 -16h-446q-10 2 -10 16z" />
<glyph unicode="n" horiz-adv-x="1164" d="M52 16q0 10 10 14q13 6 37 9.5t48 14t42 34t18 68.5v574q0 24 -13 37.5t-33 20.5t-43 11.5t-44 10.5q-6 2 -9.5 5.5t-3.5 14.5q0 5 3 10t12 10l255 120q4 2 8.5 4t6.5 2q17 0 17 -24v-156q3 -10 8 -10t7.5 1t8.5 3q64 33 111 55.5t81 38t57.5 24t41.5 13t32 5.5t29 1 q49 0 85 -21t60.5 -55.5t40 -79t23.5 -91t11 -92t3 -82.5q0 -69 -4.5 -138.5t-5.5 -153.5v-58q0 -30 11.5 -50t29 -33t38.5 -19.5t41 -10.5t36.5 -6.5t25.5 -6.5q10 -4 10 -14q0 -14 -10 -16h-482q-10 2 -10 16q0 10 10 14q13 6 37 9.5t48 15t41.5 36.5t17.5 73 q5 31 6.5 68.5t1.5 82.5t-1 96.5t-1 114.5q0 49 -4.5 99.5t-22 92t-51.5 68t-94 26.5q-10 0 -25 -2.5t-41.5 -11.5t-68.5 -27t-106 -49q-8 -5 -16.5 -11.5t-9.5 -16.5v-538q0 -45 18 -68.5t42 -34t48 -14t37 -9.5q10 -4 10 -14q0 -14 -10 -16h-446q-10 2 -10 16z" />
<glyph unicode="o" horiz-adv-x="1107" d="M75 460q0 93 37.5 177.5t101.5 149.5t149 103.5t179 38.5q99 0 188 -36t156 -100t106.5 -150.5t39.5 -186.5q0 -103 -36 -191t-100 -153t-152 -102t-193 -37q-104 0 -191 38t-150.5 103.5t-99 154.5t-35.5 191zM241 523q0 -83 20.5 -170.5t63 -160t108.5 -119t158 -46.5 q71 0 122 31.5t84 81.5t48.5 112t15.5 124q0 49 -10.5 104.5t-31 110t-50.5 104t-69.5 87.5t-88 60.5t-105.5 22.5q-67 0 -117 -31t-83 -80.5t-49 -110.5t-16 -120z" />
<glyph unicode="p" horiz-adv-x="1090" d="M12 -604q0 9 10 13q13 6 37 9.5t48 14t42 33t18 66.5v1199q0 24 -13 37.5t-33 20.5t-43 11.5t-44 10.5q-6 2 -9.5 5.5t-3.5 14.5q0 5 3 10t12 10l255 122q8 4 16 4q16 0 16 -24v-127q0 -5 4.5 -8t7.5 -3q11 0 18 7q81 50 152 77t149 27q52 0 96 -21.5t80.5 -57 t64.5 -82.5t46.5 -98t28.5 -103t10 -97q0 -72 -19 -137t-54 -121.5t-84 -103.5t-110 -81q-42 -23 -90 -37t-98 -14q-45 0 -87.5 6t-93.5 17q-17 0 -18.5 -12t-2.5 -25v-427q0 -30 12.5 -49t32 -31.5t43 -19t45.5 -10.5t40 -6.5t27 -6.5q10 -4 10 -13q0 -14 -10 -16h-501 q-10 2 -10 16zM323 182q0 -3 1 -16.5t3 -24.5q2 -14 16.5 -26.5t35.5 -23t46.5 -19t49.5 -14t44.5 -8.5t32.5 -3q66 0 117 26.5t86 71t53 101.5t18 118q0 47 -5.5 98.5t-18.5 101.5t-35 95.5t-54 81t-75.5 57t-100.5 24.5q-54 0 -103.5 -15t-95.5 -49q-2 -1 -4 -4l-5 -4 l-6 -6v-562z" />
<glyph unicode="q" horiz-adv-x="1096" d="M100 428q0 101 37.5 191.5t103 159t153 108.5t187.5 40q66 0 125 -16.5t116 -47.5h7q13 0 26 11t25 24.5t21.5 25t15.5 11.5h10q2 0 4 -0.5t2 -5.5v-1397q0 -44 18 -66.5t42 -33t48 -14t37 -9.5q10 -4 10 -13q0 -14 -10 -16h-536q-10 2 -10 16q0 9 10 13q9 4 29.5 6.5 t46.5 6.5t54 10.5t51.5 19t38.5 31.5t15 49v568q0 5 -1 5.5t-3 0.5q-5 0 -18 -8q-53 -30 -93.5 -53t-76.5 -39t-71 -24.5t-77 -8.5q-51 0 -96 19.5t-82 53.5t-67 79t-50 95.5t-31 104t-11 103.5zM251 417q0 -76 27.5 -137.5t71 -105t97 -67t105.5 -23.5q29 0 60 6.5t61 18 t57 27.5t47 36v454q0 64 -19.5 110t-52.5 75.5t-75.5 43.5t-87.5 14q-64 0 -117.5 -33t-92 -93t-60 -143t-21.5 -183z" />
<glyph unicode="r" horiz-adv-x="747" d="M52 16q0 9 10 13q13 6 37 9.5t48 14t42 33t18 66.5v529q0 24 -13 37.5t-33 20.5t-43 11.5t-44 10.5q-6 2 -9.5 5.5t-3.5 14.5q0 5 3 10t12 10l255 120q4 2 8.5 4t6.5 2q17 0 17 -24v-162q0 -3 0.5 -7.5t5.5 -4.5t8 3.5t6 6.5q18 24 39 53.5t44.5 55.5t49 43.5t51.5 17.5 q18 0 48.5 -8.5t60 -20t50.5 -24.5t21 -22t-6 -28.5t-15.5 -39t-22 -34.5t-25.5 -15q-2 0 -3 0.5t-2 0.5q-17 6 -35.5 14.5t-37 16.5t-38 13.5t-38.5 5.5q-30 0 -59 -17t-51.5 -42.5t-36.5 -54t-14 -50.5v-452q0 -30 12.5 -49t32 -31.5t43 -19t45.5 -10.5t40 -6.5t27 -6.5 q10 -4 10 -13q0 -14 -10 -16h-501q-10 2 -10 16z" />
<glyph unicode="s" horiz-adv-x="685" d="M65 218q0 11 3.5 13t12.5 2q7 0 12.5 -5t9.5 -12.5t6.5 -15.5t5.5 -14q17 -37 37 -66.5t46 -50.5t59 -32.5t75 -11.5q32 0 58 13t44 35t27.5 49t9.5 56q0 54 -30 93t-74.5 71t-97 62.5t-97 67.5t-74.5 86t-30 118q0 48 25.5 93.5t67 80.5t94.5 56t109 21q31 0 59.5 -5 t52 -12t39 -14t20.5 -11q7 -5 11 -12.5t6 -19.5t2.5 -31t0.5 -46v-92q0 -9 -3 -15.5t-15 -6.5q-11 0 -14.5 4t-6.5 13q-12 31 -29.5 62.5t-40.5 56.5t-53.5 40.5t-68.5 15.5q-28 0 -52.5 -10.5t-42.5 -31t-28.5 -51t-10.5 -69.5q0 -15 11 -31.5t28 -33t37.5 -32.5t40.5 -28 q51 -32 105 -63.5t98 -70.5t72 -89.5t28 -120.5q0 -58 -24 -104.5t-64 -78.5t-91.5 -49.5t-106.5 -17.5q-28 0 -56 5t-51 11.5t-38 11.5t-17 5q-9 0 -16 -5t-13.5 -11.5t-12.5 -11.5t-14 -5h-17q-2 0 -6 27.5t-7.5 66t-7 80.5t-3.5 71z" />
<glyph unicode="t" horiz-adv-x="647" d="M45 791q0 5 2 11t5 8q40 26 76 58t70 64q10 11 27 33t35.5 43.5t37 38t31.5 16.5q12 0 12 -14q0 -7 -3.5 -21.5t-8.5 -32.5t-11 -38t-11 -39q0 -8 2.5 -13t13.5 -6h255q16 0 22 -5.5t9 -14.5q2 -5 4 -17.5t4 -27.5t3.5 -31t1.5 -28q0 -6 -8 -6h-301q-5 0 -5.5 -2t-0.5 -7 v-552q0 -32 8 -56t20.5 -40t28.5 -24t32 -8q46 0 76.5 13.5t53 29.5t40.5 29.5t38 13.5q8 0 8 -7q0 -14 -2 -21.5t-6 -12.5q-2 -3 -21 -27.5t-51 -52t-74 -50t-90 -22.5q-54 0 -95 20t-68 53.5t-40.5 76.5t-13.5 89v557h-75q-14 0 -22 7t-9 15z" />
<glyph unicode="u" horiz-adv-x="1124" d="M40 834q0 8 2.5 14t13.5 8l229 67q6 2 12.5 3t12.5 1q10 0 10 -17v-671q0 -37 18 -64.5t47.5 -45.5t68 -27t79.5 -9q33 0 65.5 7.5t62 20.5t53.5 31.5t40 41.5v542q-3 29 -26.5 49.5t-50.5 26.5q-7 2 -15.5 2.5t-15.5 2t-11.5 5t-4.5 12.5q0 8 2.5 14t13.5 8l229 67 q6 2 12.5 3t12.5 1q4 0 7 -3.5t3 -16.5v-710q5 -44 25 -63t65 -19l58 4q4 0 5 -5.5t1 -11.5q0 -2 -2.5 -5t-12.5 -8l-266 -110q-2 -1 -10 -3.5t-9 -2.5q-7 0 -8.5 8.5t-1.5 16.5v90q-2 7 -4 8.5t-6 1.5q-5 0 -8 -2t-8 -4q-35 -18 -78.5 -39t-91.5 -39t-98.5 -30t-99.5 -12 q-28 0 -62 7.5t-64 25.5t-50 47.5t-20 73.5v610q-3 29 -26.5 49.5t-50.5 26.5q-7 2 -15.5 2.5t-15.5 2t-11.5 5t-4.5 12.5z" />
<glyph unicode="v" horiz-adv-x="1036" d="M0 880q0 20 24 20h445q6 0 7 -7t1 -10q0 -14 -11 -18.5t-28 -5.5t-36 -0.5t-36 -4.5t-28 -17.5t-11 -38.5q0 -3 3 -12.5t3 -11.5l203 -555q2 -5 6.5 -14.5t12.5 -9.5q4 0 8.5 4.5t7.5 10.5t5 11.5t3 7.5q46 118 78.5 201.5t53.5 140t33 90.5t18 53.5t7 28.5t1 16 q0 35 -22 57.5t-54 34.5q-9 2 -22.5 2t-26 2t-22 8t-9.5 20q0 8 7 12.5t15 4.5h379q8 -2 9.5 -7.5t1.5 -10.5q0 -7 -2 -10.5t-9.5 -6t-21 -4.5t-35.5 -6t-38.5 -20.5t-30 -38.5t-23.5 -45.5t-19 -42.5l-273 -706q-3 -7 -8.5 -18t-13.5 -11h-79q-8 0 -13.5 11.5t-8.5 19.5 l-265 717q-17 46 -49 80.5t-78 49.5q-7 2 -17 3t-19.5 3t-16 7t-6.5 16z" />
<glyph unicode="w" horiz-adv-x="1642" d="M8 880q0 20 24 20h445q6 0 7 -7t1 -10q0 -14 -11 -18.5t-27 -5.5t-35 -0.5t-35 -4.5t-27 -17.5t-11 -38.5q0 -3 1 -12.5t1 -11.5l203 -555q2 -5 6.5 -14.5t12.5 -9.5q4 0 8.5 4.5t7.5 10.5t5 11.5t3 7.5q49 124 82 210t54.5 143t32.5 89t16 50q-17 46 -49 80.5t-78 49.5 q-7 2 -17 3t-19.5 3t-16 7t-6.5 16q0 20 24 20h445q6 0 7 -7t1 -10q0 -14 -11 -18.5t-27 -5.5t-35 -0.5t-35 -4.5t-27 -17.5t-11 -38.5q0 -3 1 -12.5t1 -11.5l203 -555q2 -5 6.5 -14.5t12.5 -9.5q4 0 8.5 4.5t7.5 10.5t5 11.5t3 7.5q47 118 79 201.5t53 140t33 90.5t18 53.5 t7 28.5t1 16q0 35 -22 57.5t-54 34.5q-9 2 -22.5 2t-26 2t-22 8t-9.5 20q0 8 7 12.5t15 4.5h379q8 -2 9.5 -7.5t1.5 -10.5q0 -7 -2 -10.5t-9.5 -6t-21 -4.5t-35.5 -6t-38.5 -20.5t-30 -38.5t-23.5 -45.5t-19 -42.5l-273 -706q-3 -7 -8.5 -18t-13.5 -11h-79q-8 0 -13.5 11.5 t-8.5 19.5l-222 601l-233 -603q-3 -7 -8.5 -18t-13.5 -11h-79q-8 0 -13.5 11.5t-8.5 19.5l-265 717q-17 46 -49 80.5t-78 49.5q-7 2 -17 3t-19.5 3t-16 7t-6.5 16z" />
<glyph unicode="x" horiz-adv-x="1017" d="M17 880q2 20 24 20h372q6 0 7 -7t1 -10q-1 -8 -16 -11.5t-33 -9t-33 -16.5t-15 -33q0 -9 2 -18t7 -14l155 -192q8 -9 16.5 -19.5t16.5 -10.5q5 0 13 10l147 171q13 15 19 26.5t6 30.5q0 30 -16 41.5t-35.5 17t-35.5 10.5t-16 22q0 4 1.5 8t9.5 4h307q6 0 7 -2.5t1 -14.5 q0 -4 -1 -10t-7 -9q-29 -8 -50 -17.5t-39 -22.5t-34.5 -30.5t-36.5 -41.5l-193 -232q-3 -5 -3.5 -7.5t-0.5 -8.5q0 -4 4 -10t15.5 -21t33.5 -42t58.5 -71.5t89 -110t126.5 -158.5q10 -13 27 -20.5t33.5 -14.5t28.5 -15.5t12 -22.5q0 -9 -2 -12t-10 -6h-394q-8 0 -9 8t-1 11 q0 13 16.5 15t37 5.5t37 12.5t16.5 36q0 14 -8.5 25t-16.5 20l-172 216q-8 11 -12.5 17t-18.5 6q-12 0 -19.5 -10.5t-15.5 -18.5l-157 -189q-13 -15 -17 -30.5t-4 -24.5q0 -18 13.5 -31.5t32.5 -22t38 -12.5t31 -4q4 0 5.5 -5t1.5 -10t-1.5 -9.5t-5.5 -4.5h-321 q-11 0 -13.5 4.5t-2.5 13.5t16 19t36.5 19.5t41 20t29.5 21.5l277 333q-1 2 -3.5 5t-11.5 14t-28 34.5t-53.5 66t-88 108.5t-130.5 162q-8 9 -22.5 16.5t-29.5 14t-25.5 13.5t-10.5 15z" />
<glyph unicode="y" horiz-adv-x="1082" d="M-25 880q0 20 24 20h445q6 0 7 -7t1 -10q0 -14 -11.5 -18.5t-28.5 -5.5t-36.5 -1t-36.5 -4.5t-28.5 -17t-11.5 -38.5q0 -3 4.5 -12.5t4.5 -11.5l259 -555q2 -5 6.5 -14.5t12.5 -9.5q4 0 8.5 4.5t7.5 10.5t5 11.5t3 7.5q46 118 78.5 201.5t53.5 140t33 90.5t18 53.5 t7 28.5t1 16q0 35 -22 58t-54 34q-9 3 -22.5 3t-26 1.5t-22 7.5t-9.5 20q0 8 7 12.5t15 4.5h379q8 -2 9.5 -7.5t1.5 -10.5q0 -7 -2 -10.5t-9.5 -6t-21 -4.5t-35.5 -6q-21 -4 -37.5 -19t-29.5 -35t-23 -43t-18 -42l-470 -1165l-65 -138q-8 -17 -20.5 -27.5t-27 -16 t-29.5 -7.5t-28 -2q-35 0 -56 23t-21 58q0 28 15.5 42.5t36.5 23.5t43.5 16.5t37.5 21.5l11 11q7 7 14 14.5t13 14.5t8 12q51 114 83.5 189t51 119t26 62t7.5 20q0 12 -6 23.5t-14 21.5l-330 689q-17 46 -49 80.5t-78 49.5q-7 2 -17 3t-19.5 3t-16 7t-6.5 16z" />
<glyph unicode="z" horiz-adv-x="915" d="M62 20q0 8 0.5 12t5.5 13l503 690q10 14 17.5 24t7.5 25q1 3 -13 4.5t-35 2.5t-44 1.5t-39 0.5h-205q-34 0 -56 -15t-36 -37.5t-23 -49t-16 -49t-14 -37.5t-19 -15q-3 0 -6.5 0.5t-3.5 3.5l57 334q2 9 7.5 10.5t13.5 1.5q7 0 11.5 -6t9 -13.5t11.5 -15t19 -10.5 q15 0 38 -1.5t59 -3t88 -2.5t126 -1q60 0 138.5 2t175.5 4q6 -2 8 -9t2 -14q0 -2 -5 -16.5t-11 -19.5l-516 -707q-4 -6 -7.5 -11t-3.5 -12q0 -5 0.5 -6.5t5.5 -1.5h385q27 0 47 11.5t35.5 29.5t27.5 38t23 38t22 29.5t24 11.5q14 0 14 -12l-74 -196q-2 -4 -4 -12t-5.5 -15.5 t-8 -13t-10.5 -5.5h-705q-22 0 -22 20z" />
<glyph unicode="{" horiz-adv-x="1058" d="M206 702q0 20 8.5 31.5t20.5 11.5q72 0 113 38.5t41 125.5q0 57 -13 112t-27 112q-15 58 -27.5 115.5t-12.5 119.5q0 81 36 143t93.5 105t128 67t139.5 29q35 3 63 3.5t44 0.5q37 0 37 -30q0 -19 -6 -30t-21 -11q-14 0 -33.5 -0.5t-38.5 -2.5q-57 -8 -105.5 -28t-84 -53 t-56 -78t-20.5 -103q0 -60 4.5 -118.5t15.5 -125.5q7 -45 12 -87t5 -84q0 -63 -21 -108t-43 -66q-16 -19 -29.5 -32t-23 -22.5t-15 -17.5t-5.5 -17t5.5 -17t15.5 -18.5t24 -24.5t32 -36q10 -11 20.5 -27.5t19.5 -38.5t14.5 -48.5t5.5 -57.5q0 -30 -5 -72.5t-16 -115.5 q-8 -54 -12 -111.5t-4 -109.5q0 -80 27.5 -133.5t68 -87t87.5 -52t85 -27.5q29 -8 50 -9t32 -1q10 0 12.5 -10t2.5 -29q0 -32 -15 -32h-32q-21 0 -44 2q-39 2 -87.5 10t-98.5 25t-97.5 44t-84.5 66.5t-59.5 93t-22.5 123.5q0 59 12.5 117t27.5 115q14 57 27 110t13 103 q0 42 -8 79t-26.5 65.5t-48 46t-71.5 20.5q-12 3 -20.5 13t-8.5 25z" />
<glyph unicode="|" horiz-adv-x="431" d="M150 -35v1680h131v-1680h-131z" />
<glyph unicode="}" horiz-adv-x="1063" d="M208 -324q0 19 2.5 29t12.5 10q11 0 32 1t50 9q38 9 85 27.5t87.5 52t68 87t27.5 133.5q0 52 -4 109.5t-12 111.5q-11 73 -16 115.5t-5 72.5q0 31 5.5 57.5t14.5 48.5t19.5 38.5t20.5 27.5q18 22 32 36t24 24.5t15.5 18.5t5.5 17t-5.5 17t-15 17.5t-23 22.5t-29.5 32 q-22 21 -43 66t-21 108q0 42 5 84t12 87q11 67 15.5 125.5t4.5 118.5q0 58 -20.5 103t-56 78t-84 53t-105.5 28q-19 2 -38.5 2.5t-33.5 0.5q-15 0 -21 11t-6 30q0 30 37 30q16 0 44 -0.5t63 -3.5q69 -5 139.5 -29t128 -67t93.5 -105t36 -143q0 -62 -12.5 -119.5 t-27.5 -115.5q-14 -57 -27 -112t-13 -112q0 -26 6 -50.5t23 -46.5t47 -39t78 -28q12 0 20.5 -11.5t8.5 -31.5q0 -15 -8.5 -25t-20.5 -13q-42 -3 -71.5 -20.5t-48 -46t-26.5 -65.5t-8 -79q0 -50 13 -103t27 -110q15 -57 27.5 -115t12.5 -117q0 -70 -22.5 -123.5t-59.5 -93 t-84.5 -66.5t-97.5 -44t-98.5 -25t-87.5 -10q-23 -2 -44 -2h-32q-15 0 -15 32z" />
<glyph unicode="~" d="M90 470q0 75 18 133.5t49 99t71 61.5t85 21q25 0 48.5 -2t54.5 -13t72 -34.5t100 -66.5q15 -9 32 -21t35 -22.5t36.5 -17.5t37.5 -7q21 0 41 9.5t35.5 31t25 56t9.5 83.5h118q0 -74 -18 -132.5t-49 -99t-71 -62t-85 -21.5q-52 0 -95.5 21t-90.5 53q-53 36 -87.5 58 t-59 33.5t-43 15t-39.5 3.5q-18 0 -37.5 -8.5t-35.5 -29t-26.5 -55t-11.5 -87.5h-119z" />
<glyph unicode="&#xa2;" horiz-adv-x="934" d="M88 -359l148 418q-69 60 -107.5 148t-38.5 188q1 142 35 241t94 161.5t143 92.5t181 36l69 194h130l-69 -194q25 -2 49.5 -6.5t46.5 -14t40.5 -24.5t31.5 -37q5 -8 9.5 -18t4.5 -19q0 -38 -23.5 -54t-57.5 -16q-23 0 -41.5 8t-34.5 21t-31 28t-30 29l-242 -681 q36 -28 84 -43t108 -15q45 0 86 15t76 40q16 11 31.5 26t28 29t21 23.5t11.5 9.5q9 0 16 -6t7 -14q0 -4 -0.5 -10t-5.5 -11q-72 -100 -168 -156.5t-217 -56.5q-70 0 -130 23l-126 -355h-129zM262 479q0 -61 10.5 -118t33.5 -106l214 606q-22 -4 -43 -12.5t-37 -19.5 q-48 -27 -81.5 -65.5t-55 -84t-31.5 -97t-10 -103.5z" />
<glyph unicode="&#xa3;" d="M116 129q0 41 17.5 75t46 58t65.5 37.5t77 13.5q36 0 64 -6.5t47.5 -15t30 -15t12.5 -6.5q5 22 5 41q0 87 -28 163t-65 149h-211q-11 0 -17.5 4t-6.5 12v24q0 8 6.5 12.5t17.5 4.5h181q-20 39 -38.5 78t-33 79.5t-23.5 83.5t-9 89q0 78 28 145.5t75 117t109.5 78 t131.5 28.5t133.5 -18t114 -49.5t79.5 -74t30 -90.5q0 -12 -4 -24t-11 -22.5t-18 -17t-24 -6.5q-22 0 -37 9t-26.5 24t-21 33.5t-20.5 38.5q-21 36 -41.5 63t-45 45t-56 27t-73.5 9q-37 0 -73 -14.5t-65 -40t-47 -60t-18 -73.5q0 -72 17 -132.5t42.5 -115t55 -105.5 t53.5 -105h189q11 0 17.5 -4.5t6.5 -12.5v-24q0 -8 -6.5 -12t-17.5 -4h-166q14 -38 22 -78.5t8 -86.5q0 -26 -2 -55.5t-6.5 -60.5t-11 -61t-15.5 -56q22 -22 49.5 -44t58.5 -39t63 -28t63 -11q47 0 81 24t55.5 54t32 57t10.5 33h40q-2 -36 -17 -87t-48.5 -98t-89.5 -80 t-140 -33q-44 0 -82.5 20.5t-68 45.5t-47.5 46.5t-21 22.5q-14 -21 -36 -44.5t-49 -44t-58 -33.5t-64 -13h-7q-44 0 -76 13t-52.5 34.5t-30.5 50t-10 58.5zM165 125q0 -20 7.5 -39t22 -34t34.5 -24.5t45 -9.5q38 0 68.5 18.5t53 43t36.5 49t19 36.5q-10 13 -25 29t-34.5 30 t-45 23.5t-56.5 9.5q-25 0 -47.5 -10.5t-40 -28.5t-27.5 -42t-10 -51z" />
<glyph unicode="&#xa5;" horiz-adv-x="1569" d="M4 1392q0 5 2 11.5t13 6.5h572q11 0 14 -5t3 -13q0 -22 -17 -22q-20 -2 -44 -4.5t-45 -10t-35.5 -22t-14.5 -41.5q0 -24 12 -43l338 -540q11 -16 13.5 -20.5t10.5 -4.5q7 0 13 8t14 21l270 459q12 24 27.5 51.5t15.5 56.5q0 28 -12 44.5t-30 25.5t-40 13t-43 7 q-11 1 -14 7t-3 15q0 7 2.5 12.5t14.5 5.5h467q8 0 11 -6.5t3 -11.5q0 -10 -4.5 -15t-12 -7.5t-16.5 -4t-18 -3.5q-50 -12 -86.5 -37t-71.5 -63q-5 -5 -14.5 -16t-10.5 -13l-356 -612h346q16 0 25.5 -7t9.5 -18v-36q0 -11 -9.5 -18t-25.5 -7h-385v-155h385q16 0 25.5 -7 t9.5 -18v-36q0 -11 -9.5 -18t-25.5 -7h-385v-114q0 -54 30.5 -85t107.5 -41q7 -1 18.5 -2.5t22.5 -4t19 -6.5t8 -10v-11q0 -14 -10 -17t-24 -3h-539q-14 0 -24 3t-10 17v10q0 6 7 10.5t17.5 7t22.5 4t21 2.5q76 8 107 37.5t31 88.5v114h-386q-16 0 -25.5 7t-9.5 18v36 q0 11 9.5 18t25.5 7h386v131q0 4 -0.5 7t-2.5 8l-6 9h-377q-16 0 -25.5 7t-9.5 18v36q0 11 9.5 18t25.5 7h323l-349 557q-17 27 -36.5 54.5t-43 52t-51 43t-59.5 26.5q-5 1 -16 3.5t-23 4.5t-23 4t-16 3q-10 1 -12 7.5t-2 15.5z" />
<glyph unicode="&#xa9;" horiz-adv-x="1717" d="M90 723q0 105 27 202t77 182t119 154t154 119t182 77t202 27t202 -27t182 -77t154 -119t119 -154t77 -182t27 -202t-27 -202t-77 -182t-119 -154t-154 -119t-182 -77t-202 -27t-202 27t-182 77t-154 119t-119 154t-77 182t-27 202zM186 724q0 -92 24 -177t67 -158.5 t103.5 -134.5t134.5 -104t158.5 -67t176.5 -24t177 24t158.5 67t134.5 104t104 134.5t67 158.5t24 177q0 91 -24 176t-67 159t-104 134.5t-134.5 103.5t-158.5 67t-177 24t-176.5 -24t-158.5 -67t-134.5 -103.5t-103.5 -134.5t-67 -159t-24 -176zM358 732q0 110 40.5 201 t110 156.5t163 101.5t200.5 36q60 0 115.5 -10.5t115.5 -25.5q20 -5 41 -14t29 -9q1 0 9 2.5t11 2.5h20q8 0 8 -11v-203q0 -5 -3 -6t-13 -1q-2 0 -5 0.5t-5 3.5q-3 5 -8 15t-7 15q-50 98 -125 147t-173 49q-93 0 -164.5 -31t-119.5 -86.5t-73 -131t-25 -163.5 q0 -93 27.5 -177.5t80 -148t130 -101.5t176.5 -38q56 0 103.5 16.5t88 45.5t74 68.5t60.5 84.5q1 4 8 4h8q7 0 7 -9q0 -2 -1.5 -7t-2.5 -7l-91 -199q-2 -5 -8 -5q-15 5 -21.5 5.5t-13.5 0.5q-19 0 -50 -7t-66.5 -15t-72.5 -15t-67 -7q-104 0 -196.5 33.5t-162.5 95t-111 149 t-41 195.5z" />
<glyph unicode="&#xad;" horiz-adv-x="913" d="M85 441v137h743v-137h-743z" />
<glyph unicode="&#xae;" horiz-adv-x="1702" d="M90 723q0 105 27 202t77 182t119 154t154 119t182 77t202 27t202 -27t182 -77t154 -119t119 -154t77 -182t27 -202t-27 -202t-77 -182t-119 -154t-154 -119t-182 -77t-202 -27t-202 27t-182 77t-154 119t-119 154t-77 182t-27 202zM186 724q0 -92 24 -177t67 -158.5 t103.5 -134.5t134.5 -104t158.5 -67t176.5 -24t177 24t158.5 67t134.5 104t104 134.5t67 158.5t24 177q0 91 -24 176t-67 159t-104 134.5t-134.5 103.5t-158.5 67t-177 24t-176.5 -24t-158.5 -67t-134.5 -103.5t-103.5 -134.5t-67 -159t-24 -176zM448 1147v14q0 1 0.5 2.5 t4.5 2.5h3q2 0 8.5 0.5t19 0.5t35.5 1q66 1 132.5 4t133.5 3h60q52 -4 97.5 -23.5t79.5 -52.5t53.5 -77.5t19.5 -96.5q0 -37 -11 -66.5t-30 -52t-45 -40t-56 -31.5l181 -297q23 -38 55.5 -66t72.5 -44q4 -1 5 -3t1 -5q0 -9 -4.5 -12t-15.5 -3q-51 0 -94.5 14t-83.5 49 q-19 17 -36.5 39.5t-34.5 51.5l-156 243l-142 7h-5q-4 0 -6 -1q-2 -2 -2.5 -3t-0.5 -5v-276q0 -16 4 -28t14 -21t26 -14.5t39 -8.5q3 0 10 -1.5t15 -3t16 -2.5t13 -1q4 0 4.5 -2t0.5 -3v-14q0 -1 -1 -3t-4 -2h-369q-3 0 -4 2.5t-1 9.5v7q0 1 1 3t4 2q4 0 11.5 1t16 2.5t16 3 t10.5 1.5q34 8 47.5 26t13.5 44v634q0 30 -12.5 47t-29 26t-32 11t-20.5 2h-23q-3 0 -4 2t-1 3zM687 769l1 -18q1 -5 3 -9t8 -4q3 0 9 -1t14.5 -1.5t18.5 -1t20 -0.5q59 0 100 14.5t66.5 41t36.5 64.5t11 85q0 49 -16 87.5t-44 64.5t-66.5 39.5t-83.5 13.5h-15 q-7 0 -14.5 -0.5t-15.5 -0.5t-18 -1q-4 0 -9.5 -1.5t-5.5 -8.5v-363z" />
<glyph unicode="&#xb4;" horiz-adv-x="700" d="M168 1102q0 2 4 6l213 295q19 26 38 37.5t37 11.5q31 0 51.5 -22.5t20.5 -51.5q0 -31 -17.5 -54t-37.5 -40l-269 -217q-5 -3 -7 -3h-5l-2 3l-22 29q-4 4 -4 6z" />
<glyph unicode="&#x2000;" horiz-adv-x="866" />
<glyph unicode="&#x2001;" horiz-adv-x="1732" />
<glyph unicode="&#x2002;" horiz-adv-x="866" />
<glyph unicode="&#x2003;" horiz-adv-x="1732" />
<glyph unicode="&#x2004;" horiz-adv-x="577" />
<glyph unicode="&#x2005;" horiz-adv-x="433" />
<glyph unicode="&#x2006;" horiz-adv-x="288" />
<glyph unicode="&#x2007;" horiz-adv-x="288" />
<glyph unicode="&#x2008;" horiz-adv-x="216" />
<glyph unicode="&#x2009;" horiz-adv-x="346" />
<glyph unicode="&#x200a;" horiz-adv-x="96" />
<glyph unicode="&#x2010;" horiz-adv-x="913" d="M85 441v137h743v-137h-743z" />
<glyph unicode="&#x2011;" horiz-adv-x="913" d="M85 441v137h743v-137h-743z" />
<glyph unicode="&#x2012;" horiz-adv-x="913" d="M85 441v137h743v-137h-743z" />
<glyph unicode="&#x2013;" horiz-adv-x="1126" d="M43 433v145h1049v-145h-1049z" />
<glyph unicode="&#x2014;" horiz-adv-x="1761" d="M20 433v145h1713v-145h-1713z" />
<glyph unicode="&#x2018;" horiz-adv-x="453" d="M45 1087q0 46 12.5 87t35 77.5t54 68t68.5 57.5q12 10 32 21.5t35 11.5q8 0 10 -10t2 -17q0 -8 -5.5 -15.5t-13 -13.5t-15.5 -11t-13 -9q-17 -15 -35.5 -34t-34.5 -41t-26 -46t-10 -49q0 -7 0.5 -14.5t4 -14t11 -10.5t21.5 -4q28 0 54 -6t46.5 -19.5t32.5 -37t12 -57.5 q0 -24 -10 -44.5t-26.5 -36t-38 -24t-44.5 -8.5q-40 0 -69.5 18t-49.5 46.5t-30 64t-10 70.5z" />
<glyph unicode="&#x2019;" horiz-adv-x="453" d="M130 1297q0 24 10 44.5t26.5 35.5t38 24t43.5 9q40 0 70 -18t50 -47t30 -64.5t10 -69.5q0 -46 -13 -87.5t-36 -78.5t-54.5 -69t-69.5 -59q-14 -10 -31 -20t-31 -10q-10 0 -12.5 10.5t-2.5 16.5q0 8 6 15.5t14 13.5t15.5 11t11.5 9q17 15 36 34t34.5 41t26 45.5t10.5 49.5 q0 6 -0.5 13.5t-4 14t-11 11t-21.5 4.5q-29 0 -55 6t-46 20t-32 37t-12 58z" />
<glyph unicode="&#x201c;" horiz-adv-x="803" d="M45 1086q0 46 13 87.5t35.5 78t54 68t67.5 57.5q14 10 33 21.5t34 11.5q8 0 10.5 -10t2.5 -17q0 -8 -5.5 -15.5t-13.5 -13.5t-16 -11t-13 -9q-17 -15 -35.5 -34t-33.5 -41t-25 -46t-10 -49q0 -7 0.5 -14.5t4 -14t10.5 -10.5t20 -4q29 0 55.5 -6t47 -20t32.5 -37t12 -58 q0 -24 -10 -44.5t-26.5 -35.5t-38 -23.5t-43.5 -8.5q-40 0 -70.5 18t-50.5 46.5t-30.5 63.5t-10.5 70zM399 1087q0 46 13 87t35.5 77.5t53.5 68t68 57.5q12 10 32 21.5t36 11.5q8 0 10 -9t2 -17q0 -9 -5.5 -16t-13.5 -13.5t-16 -11.5t-12 -9q-17 -15 -36 -34t-34.5 -41 t-26 -46t-10.5 -49q0 -6 0.5 -13.5t4 -14t11 -11t21.5 -4.5q28 0 54.5 -6t47 -19.5t32.5 -37t12 -57.5q0 -24 -10 -44.5t-26.5 -36t-38 -24t-44.5 -8.5q-39 0 -69 18t-50.5 46.5t-30.5 64t-10 70.5z" />
<glyph unicode="&#x201d;" horiz-adv-x="803" d="M130 1297q0 24 10 44.5t26.5 35.5t38 24t43.5 9q40 0 70 -18t50 -47t30 -64.5t10 -69.5q0 -46 -13 -87.5t-36 -78.5t-54.5 -69t-69.5 -59q-14 -10 -31 -20t-31 -10q-8 0 -11.5 10.5t-3.5 16.5q0 8 6 15.5t14 13.5t16 11t13 9q16 15 34.5 34t34 41t26 45.5t10.5 49.5 q0 6 -0.5 13.5t-4 14t-10.5 11t-20 4.5q-29 0 -56 6t-47 20t-32 37t-12 58zM480 1297q0 24 10 44.5t26.5 35.5t38 24t44.5 9q40 0 69.5 -18t49.5 -47t30 -64.5t10 -69.5q0 -46 -12.5 -87.5t-35 -78t-53.5 -68t-67 -57.5q-14 -9 -33.5 -21t-33.5 -12q-9 0 -12 10.5t-3 16.5 q0 8 6 15.5t14 13.5t16 11t12 9q17 15 35.5 34t34.5 41t26 45.5t10 49.5q0 6 -0.5 13.5t-4 14t-11 11t-21.5 4.5q-29 0 -55 6t-46 20t-32 37t-12 58z" />
<glyph unicode="&#x2022;" horiz-adv-x="712" d="M110 780q0 51 19.5 95.5t53.5 78t78.5 53t94.5 19.5t94.5 -19.5t78.5 -53t53.5 -78t19.5 -95.5q0 -53 -19.5 -98t-53.5 -78t-78.5 -51.5t-94.5 -18.5t-94.5 18.5t-78.5 51.5t-53.5 78t-19.5 98z" />
<glyph unicode="&#x2026;" horiz-adv-x="2250" d="M245 103q0 26 10.5 49.5t28 41.5t41 28.5t50.5 10.5t50.5 -10.5t41.5 -28.5t28 -42t10 -50q0 -28 -10 -51.5t-28 -41t-41.5 -27t-50.5 -9.5t-50.5 10t-41 27t-28 41t-10.5 52zM995 103q0 26 10.5 49.5t28 41.5t41 28.5t50.5 10.5t50.5 -10.5t41.5 -28.5t28 -42t10 -50 q0 -28 -10 -51.5t-28 -41t-41.5 -27t-50.5 -9.5t-50.5 10t-41 27t-28 41t-10.5 52zM1745 103q0 26 10.5 49.5t28 41.5t41 28.5t50.5 10.5t50.5 -10.5t41.5 -28.5t28 -42t10 -50q0 -28 -10 -51.5t-28 -41t-41.5 -27t-50.5 -9.5t-50.5 10t-41 27t-28 41t-10.5 52z" />
<glyph unicode="&#x202f;" horiz-adv-x="346" />
<glyph unicode="&#x2044;" horiz-adv-x="280" d="M-475 -55l1100 1535h130l-1101 -1535h-129z" />
<glyph unicode="&#x205f;" horiz-adv-x="433" />
<glyph unicode="&#x2070;" horiz-adv-x="661" d="M48 953q0 80 21.5 156.5t58 136.5t86.5 96.5t107 36.5q72 0 126.5 -37t91 -97t55.5 -136.5t19 -155.5q0 -78 -20 -153t-57 -133.5t-89.5 -94.5t-116.5 -36q-54 0 -105 33t-90 89.5t-63 132.5t-24 162zM169 955q0 -86 8 -152t27 -111t51 -68.5t80 -23.5q50 0 80.5 28 t47.5 76.5t22.5 113t5.5 138.5q0 38 -1 79t-6 80.5t-15 75t-28.5 63t-47 43.5t-69.5 16q-52 0 -83 -34t-47 -86.5t-20.5 -115.5t-4.5 -122z" />
<glyph unicode="&#x20ac;" horiz-adv-x="1219" d="M25 528v36q0 11 7.5 18t19.5 7h119q-2 17 -2 35v36q0 58 6 114h-123q-12 0 -19.5 7t-7.5 18v36q0 11 7.5 18t19.5 7h137q25 118 78 213.5t126.5 163.5t164.5 105t193 37q46 0 95.5 -11t94 -25t80 -27.5t54.5 -19.5q5 -2 8.5 -3t6.5 -1q1 0 10 3.5t12 3.5h23q9 0 9 -16 v-295q0 -6 -3.5 -8t-14.5 -2q-2 0 -6 0.5t-6 5.5q-2 7 -8.5 22t-8.5 21q-57 143 -139 215t-195 72q-91 0 -165.5 -33.5t-129 -93.5t-88 -143.5t-42.5 -183.5h653q12 0 19.5 -7t7.5 -18v-36q0 -11 -7.5 -18t-19.5 -7h-658q-1 -15 -1 -30v-32q0 -31 1 -62t3 -61h544 q12 0 19.5 -7t7.5 -18v-36q0 -11 -7.5 -18t-19.5 -7h-535q14 -99 46.5 -183.5t84 -146.5t122.5 -97.5t162 -35.5q64 0 116 24t95 66t78.5 98.5t66.5 122.5q2 5 4 5.5t5 0.5h10q2 0 4.5 -2.5t2.5 -10.5q0 -2 -1.5 -10t-2.5 -10l-104 -289q-2 -7 -9 -7q-18 6 -25 7t-15 1 q-18 0 -48 -10t-66.5 -21.5t-78.5 -21.5t-84 -10q-103 0 -191.5 37t-157 105.5t-115 166.5t-64.5 221h-128q-12 0 -19.5 7t-7.5 18z" />
<glyph unicode="&#x2122;" horiz-adv-x="2192" d="M30 1219v18q9 54 13.5 88t7 53t4 25.5t3.5 6.5h774q2 0 3.5 -6.5t4 -25.5t7 -53t13.5 -88v-18q0 -3 -4 -3h-14q-4 0 -5 2q-2 1 -3.5 9t-3.5 16q-5 17 -11.5 35t-17.5 34t-28.5 27.5t-44.5 16.5h-169q-9 -2 -15 -3t-6 -13v-691q0 -17 11 -30.5t30 -23.5t45 -16t55 -9h43 q4 0 5 -2t1 -3v-13q0 -1 -1 -3t-5 -2h-555q-6 0 -6 5v13q0 1 1 3t5 2h43q30 3 55.5 9t45 16t30.5 23.5t11 30.5v691q0 12 -6.5 13t-15.5 3h-168q-27 -5 -44.5 -16.5t-28.5 -27.5t-17.5 -34t-11.5 -35q-2 -8 -3.5 -16t-3.5 -9q-1 -2 -5 -2h-14q-4 0 -4 3zM923 551v15q0 1 1 3 t4 2q43 0 66.5 11t35 29.5t14.5 44t5 55.5q4 79 10.5 155t12.5 149t10 145t4 144v22q0 15 -10.5 26t-24.5 18.5t-28 11t-22 3.5q-4 0 -4 6v13q0 6 4 6h193q13 -1 20 -14q79 -163 133.5 -275t90 -185t55 -113t29 -58.5t12 -22t4.5 -3.5l324 646q8 11 13.5 18t12.5 7h193 q5 0 5.5 -2t0.5 -4v-13q0 -2 -1 -4t-5 -2q-2 0 -16 -2.5t-31 -9.5t-30.5 -20t-13.5 -35l38 -675q1 -27 20.5 -41.5t43 -21.5t42.5 -8t21 -1q4 0 5.5 -2t1.5 -3v-15q0 -4 -7 -4h-377q-6 0 -6 4v15q0 5 6 5q15 0 35.5 1.5t39 7.5t31.5 16.5t13 28.5q-9 137 -14 232.5t-8.5 159 t-5 100.5t-3.5 57t-4 27t-5 12l-335 -671q-2 -4 -15 -4q-4 0 -8.5 0.5t-5.5 3.5l-336 681l-34 -578v-25q3 -12 14 -21t26.5 -15t35 -9.5t40.5 -3.5q3 0 3 -5v-15q0 -4 -3 -4h-311q-5 0 -5 4z" />
<glyph unicode="&#xe000;" horiz-adv-x="900" d="M0 900h900v-900h-900v900z" />
</font>
</defs>
</svg>
