<?xml version="1.0" standalone="no"?>
<!DOCTYPE svg PUBLIC "-//W3C//DTD SVG 1.1//EN" "http://www.w3.org/Graphics/SVG/1.1/DTD/svg11.dtd" >
<svg xmlns="http://www.w3.org/2000/svg">
<metadata>
This is a custom SVG webfont generated by Font Squirrel.
Copyright   : Copyright c David J Perry 2003 All rights reserved
Designer    : David J Perry
Foundry     : David J Perry
Foundry URL : httpscholarsfontsnet
</metadata>
<defs>
<font id="CardoBold" horiz-adv-x="1049" >
<font-face units-per-em="2048" ascent="1638" descent="-410" />
<missing-glyph horiz-adv-x="550" />
<glyph unicode=" "  horiz-adv-x="550" />
<glyph unicode="&#x09;" horiz-adv-x="550" />
<glyph unicode="&#xa0;" horiz-adv-x="550" />
<glyph unicode="!" horiz-adv-x="544" d="M130 103q0 29 11.5 55t31 45.5t45 30.5t54.5 11q30 0 56 -11.5t45 -31.5t30 -46t11 -54q0 -29 -11 -54.5t-30.5 -45t-45.5 -30.5t-55 -11q-31 0 -57 11t-45 30.5t-29.5 45t-10.5 55.5zM141 1424v53q0 22 11 31t30 9q5 0 12.5 0.5t17.5 0.5q13 1 30 1h30h38q22 0 39 -2 q12 0 28.5 -6.5t24.5 -28.5v-58l-74 -963q-2 -28 -16 -45.5t-40 -17.5t-40.5 17.5t-16.5 45.5z" />
<glyph unicode="&#x22;" horiz-adv-x="930" d="M128 1333q0 21 12.5 40t32 34t44.5 23.5t49 8.5q27 0 52 -8.5t44.5 -23.5t31.5 -34t12 -40q0 -37 -7.5 -100t-19 -139.5t-25 -159.5t-24.5 -159l-126 1q-9 76 -22 159t-25 159.5t-20.5 139.5t-8.5 99zM524 1333q0 21 12.5 40t32 34t44.5 23.5t49 8.5q27 0 52 -8.5 t44.5 -23.5t31.5 -34t12 -40q0 -37 -7.5 -100t-19 -139.5t-25 -159.5t-24.5 -159l-126 1q-9 76 -22 159t-25 159.5t-20.5 139.5t-8.5 99z" />
<glyph unicode="#" horiz-adv-x="1238" d="M2 473l41 161h264q9 42 17.5 80t16.5 75t16.5 75t17.5 80h-280l44 161h270q24 115 50.5 236.5t50.5 236.5h169l-101 -473h210q24 115 50.5 236.5t50.5 236.5h169l-101 -473h273l-38 -161h-270q-9 -42 -16.5 -80t-15 -75t-15 -75t-16.5 -80h276l-37 -161h-274 q-26 -125 -53 -254.5t-53 -253.5h-175l108 508h-206q-26 -125 -53 -254.5t-53 -253.5h-175l108 508h-270zM480 634h206q9 41 17 79t16 75.5t16 75.5t17 80h-209z" />
<glyph unicode="$" d="M100 230q0 42 26.5 67.5t70.5 25.5q20 0 35 -7.5t26.5 -21t20.5 -31.5t17 -38t17.5 -41t22 -41t28.5 -37t38 -28l-5 1q13 -5 26.5 -10t26.5 -9h-1q32 -10 70 -11q11 0 24 1t27 3q14 4 27.5 7t26.5 7h-3q65 24 103.5 79t38.5 133q0 34 -12 64.5t-37 60.5t-63.5 60.5 t-91.5 65.5l4 -1q-8 4 -15.5 7.5t-15.5 8.5q-40 22 -86.5 48.5t-92 57.5t-88 66.5t-74.5 75.5t-51.5 83.5t-19.5 91.5t17.5 94.5t50.5 86.5t81 70t109 47l56 11q24 3 55 3q23 0 47 -1.5t49 -5.5l56 -10q48 -11 97 -27.5t88.5 -41t65 -57t25.5 -73.5q0 -18 -8.5 -33 t-23 -26.5t-32.5 -17.5t-37 -6q-23 0 -41.5 8t-33.5 21.5t-28 30.5t-26 36q-26 38 -55.5 71.5t-61.5 40.5q-20 6 -39.5 8.5t-42.5 2.5q-5 0 -11 -0.5t-16 -2t-26 -4t-40 -7.5q-28 -9 -45 -26t-26 -37.5t-11.5 -42t-2.5 -40.5q0 -45 21.5 -82.5t56 -70.5t76.5 -61t84 -53 q34 -20 64.5 -38.5t43.5 -28.5q6 -4 11.5 -7t7.5 -4q56 -30 108.5 -68.5t92.5 -83.5t64 -96t24 -106q0 -74 -24.5 -133.5t-68 -104t-103 -73.5t-128.5 -41l-56 -9q-23 -3 -46.5 -5t-49.5 -2q-32 0 -54 3l-56 9q-53 12 -103 35t-89 55t-62.5 71.5t-23.5 83.5zM395 -219v1641 h70v-1641h-70zM586 -219v1641h70v-1641h-70z" />
<glyph unicode="%" horiz-adv-x="1812" d="M1133 397q0 74 18 149.5t53 136t87 99t120 38.5q69 0 120 -38t84.5 -99t50.5 -136t17 -150q0 -93 -17 -170.5t-51 -133t-85 -86.5t-119 -31t-120 31t-87 86.5t-53 133t-18 170.5zM1274 397q0 -71 4.5 -135t19 -112.5t41.5 -77.5t72 -29q46 0 72 29.5t39 78.5t16 113.5 t3 133.5q0 38 -2 79t-7 80.5t-14.5 75.5t-23.5 62.5t-34.5 42.5t-47.5 16q-45 0 -72.5 -34.5t-42 -87.5t-19 -116t-4.5 -119zM271 -55l1100 1535h190l-1101 -1535h-189zM146 1029q0 74 18 149.5t53 136t87 99t120 38.5q69 0 120 -38t84.5 -99t50.5 -136t17 -150 q0 -93 -17 -170.5t-51 -133t-85 -86.5t-119 -31t-120 31t-87 86.5t-53 133t-18 170.5zM287 1029q0 -71 4.5 -135t19 -112.5t41.5 -77.5t72 -29q46 0 72 29.5t39 78.5t16 113.5t3 133.5q0 38 -2 79t-7 80.5t-14.5 75.5t-23.5 62.5t-34.5 42.5t-47.5 16q-45 0 -72.5 -34.5 t-42 -87.5t-19 -116t-4.5 -119z" />
<glyph unicode="&#x26;" horiz-adv-x="1592" d="M23 377q0 76 28.5 137t79 111.5t118.5 90.5t148 74q-34 34 -61.5 67t-46.5 67t-29 71t-10 81q0 66 29.5 115.5t77.5 83t109 50t124 16.5q55 0 110 -18t99 -50.5t71 -79t27 -103.5q0 -46 -19 -85.5t-49 -73t-68 -61t-76 -49.5q-4 -3 -5.5 -4t-1.5 -4q0 -5 6 -9 q4 -3 23 -20t56 -54t93 -97t133 -149l215 325q9 14 14 26t5 30q0 25 -12 32t-25 9q-14 3 -27 5.5t-23 7t-16 12t-6 18.5q0 4 0.5 9.5t5 11t13.5 9t26 3.5h391q11 -17 13 -26t2 -11q0 -22 -12 -29t-33 -9q-23 -3 -46.5 -5.5t-45.5 -8.5t-41.5 -18.5t-33.5 -34.5l-290 -460 l120 -206q21 -36 47.5 -63.5t59.5 -27.5q10 0 30 6.5t41.5 15t41.5 15t31 6.5q14 0 22.5 -5t12.5 -11t5 -11.5t1 -7.5q0 -4 -3 -12.5t-19 -19.5q-56 -36 -120.5 -63t-140.5 -27q-48 0 -84 15.5t-64.5 40.5t-52 57.5t-45.5 66.5q-10 14 -19.5 29t-20.5 30q-48 -42 -104.5 -84 t-119 -75.5t-130 -54.5t-138.5 -21q-83 0 -154.5 35t-124 92t-82.5 129.5t-30 147.5zM273 388q0 -51 18.5 -99t51 -85t75.5 -59.5t92 -22.5q44 0 88 17t85.5 41.5t80.5 53t72 52.5q11 8 11 15q0 3 -2 7q-72 128 -162 229t-196 189q-5 -2 -17 -9t-20 -12q-39 -23 -71.5 -57 t-56 -75.5t-36.5 -89t-13 -95.5zM467 1115q0 -35 9.5 -69t26 -64t39.5 -55.5t50 -44.5q24 9 43 32t32 51.5t20 59t7 55.5q0 36 -6.5 67.5t-21 54.5t-37.5 36t-57 13q-51 0 -78 -39t-27 -97z" />
<glyph unicode="'" horiz-adv-x="534" d="M128 1333q0 21 12.5 40t32 34t44.5 23.5t49 8.5q27 0 52 -8.5t44.5 -23.5t31.5 -34t12 -40q0 -37 -7.5 -100t-19 -139.5t-25 -159.5t-24.5 -159l-126 1q-9 76 -22 159t-25 159.5t-20.5 139.5t-8.5 99z" />
<glyph unicode="(" horiz-adv-x="695" d="M171 608q0 147 24.5 293.5t72.5 286t120.5 269t168.5 241.5q9 11 15.5 15.5t22.5 4.5q11 0 24 -11t24.5 -26t19.5 -29.5t8 -21.5q0 -15 -11 -39q-144 -220 -222.5 -463t-78.5 -525q0 -273 78.5 -514.5t222.5 -461.5q11 -20 11 -39q0 -7 -8 -21.5t-19.5 -29.5t-24.5 -26 t-24 -11q-16 0 -22 4.5t-17 16.5q-94 113 -166 241.5t-120.5 267.5t-73.5 285t-25 293z" />
<glyph unicode=")" horiz-adv-x="695" d="M24 -412q0 10 2 20t8 19q145 221 223 462.5t78 513.5q0 141 -20 271.5t-58 253t-94.5 238t-128.5 225.5q-6 10 -8 19.5t-2 19.5q0 7 8 21.5t19.5 29.5t24.5 26t24 11q15 0 21 -4.5t17 -16.5q97 -111 169.5 -240t120.5 -268.5t72 -286.5t24 -294q0 -146 -25.5 -291.5 t-75 -285t-121.5 -269t-165 -242.5q-8 -10 -15.5 -15t-21.5 -5q-11 0 -24 11t-24.5 26t-19.5 29.5t-8 21.5z" />
<glyph unicode="*" horiz-adv-x="811" d="M40 1321l22 93l251 -38q11 60 22.5 125.5t20.5 122.5h96l40 -249l251 36l28 -92l-224 -116l111 -225l-76 -56l-178 179l-180 -175l-80 53l115 226z" />
<glyph unicode="+" d="M68 532v187h365v379h187v-379h360v-187h-360v-375h-187v375h-365z" />
<glyph unicode="," horiz-adv-x="600" d="M121 143q0 38 12 67.5t34 49.5t51.5 30.5t65.5 10.5q62 0 100.5 -23.5t59.5 -57t28 -70t7 -63.5q0 -54 -17 -106t-44.5 -98t-63.5 -85t-74 -67q-15 -11 -34.5 -22t-36.5 -11q-20 0 -25 13t-5 24q1 13 8.5 24t18.5 20t22.5 17.5t20.5 16.5q14 14 29 31t27 36t20 39t8 40 q0 8 -2.5 17t-19.5 9q-32 0 -65.5 10t-61.5 30t-45.5 49.5t-17.5 68.5z" />
<glyph unicode="-" horiz-adv-x="973" d="M85 411v197h803v-197h-803z" />
<glyph unicode="." horiz-adv-x="594" d="M130 130q0 34 13 64.5t36 53.5t53 36t65 13q34 0 64.5 -13t53.5 -36t36 -53.5t13 -64.5q0 -35 -13 -65t-36 -53t-53.5 -36t-64.5 -13q-35 0 -65 13t-53 36t-36 53t-13 65z" />
<glyph unicode="/" horiz-adv-x="724" d="M5 -27l524 1479h190l-525 -1479h-189z" />
<glyph unicode="0" d="M66 675q0 82 13.5 166.5t39.5 163t65.5 147t91 119t115.5 80t140 29.5t139.5 -29t113.5 -80t87.5 -119.5t62 -147t37 -163t12.5 -167.5q0 -155 -28 -284t-84.5 -221.5t-141 -143.5t-198.5 -51t-201 51.5t-145.5 144t-88.5 221.5t-30 284zM302 674q0 -78 3 -154.5t12 -146 t24.5 -128.5t41 -102t62 -67.5t86.5 -24.5t86 25t60 68.5t38 103.5t21 129.5t9 145.5t2 153q0 63 -3.5 134.5t-12 141t-23.5 133t-39 112t-58 77.5t-79 29q-50 0 -87 -29t-62.5 -78t-41.5 -113t-24.5 -134t-11.5 -141t-3 -134z" />
<glyph unicode="1" d="M170 1054q0 4 5 7.5t18 12.5q30 19 69 51t82.5 72t88.5 86.5t86 95.5h76q19 0 30.5 -1.5t17.5 -5t7.5 -9.5t1.5 -16v-1145q0 -14 0.5 -28.5t1 -26.5t2 -20t3.5 -8q12 -8 29.5 -12t38 -5.5t43 -2t44.5 -0.5q31 0 39 -8t8 -15v-53q0 -7 -8 -15t-39 -8h-567q-31 0 -39 7 t-8 16v53q0 8 7.5 15t36.5 8q21 0 50.5 0.5t58.5 2t52.5 6t32.5 12.5v1011q-33 -22 -56.5 -37t-44.5 -26.5t-42 -22.5t-50 -26q-5 -3 -18 -8.5t-21 -5.5q-9 0 -14.5 10.5t-20.5 33.5q-1 2 -1 5z" />
<glyph unicode="2" d="M56 40q0 17 12 33t29 36q48 57 104 114t113 114q76 76 146 153t123.5 153t85 150.5t31.5 146.5q0 54 -19.5 106.5t-52.5 93.5t-76.5 66t-91.5 25q-52 0 -97.5 -20t-82.5 -53.5t-62.5 -77t-36.5 -89.5q-3 -11 -5 -20.5t-7 -16t-16 -10.5t-30 -4h-9q-14 0 -21.5 3.5 t-7.5 17.5q0 5 4.5 37t16 74t31 86.5t49.5 74.5h-1q41 42 80.5 70t80 45t83 24.5t90.5 7.5q97 0 176.5 -31t136 -85.5t87 -128.5t30.5 -160q0 -62 -28 -123.5t-78.5 -125.5t-121 -130.5t-155.5 -139.5q-9 -7 -29 -26t-46.5 -44.5t-56.5 -55t-57.5 -57.5t-50.5 -52t-35 -39 h543q22 0 36 6.5t24.5 23t19.5 44.5t20 70h65l-46 -282q-3 -14 -17 -29t-49 -15h-787q-17 0 -25.5 1t-13 5t-5 12t-0.5 22z" />
<glyph unicode="3" d="M49 133q0 22 10 39t27 28t38.5 17t45.5 6q28 0 52.5 -12t47 -29.5t44.5 -38t46 -38t51 -29.5t59 -12q59 5 104 41t75 89.5t45 117t15 123.5q0 74 -17 126t-42.5 85t-56.5 48.5t-59 15.5q-23 0 -40 -5t-30 -11.5t-22 -14t-17 -12.5q-7 -5 -15 -8t-25 -3q-18 0 -28.5 13.5 t-10.5 24.5q0 6 12.5 20.5t23.5 24.5q36 32 75.5 72t71.5 84t53 90t21 91q0 34 -13.5 65.5t-36 56.5t-51 40t-58.5 15q-57 0 -100 -19.5t-74 -48.5t-52 -61.5t-35 -58.5q-6 -11 -13.5 -14t-19.5 -3q-5 0 -12.5 2t-14.5 6t-12 10t-5 14q0 -1 1.5 3t3.5 9t5 12q25 60 65.5 111 t89.5 87.5t104 57t110 20.5q79 0 143 -16t110 -47t71 -76.5t25 -104.5q0 -45 -18.5 -86t-48 -78.5t-67 -70.5t-76.5 -60q88 -9 151 -42t103.5 -82.5t59.5 -111.5t19 -128q0 -74 -24 -140.5t-64 -122t-93.5 -100t-112.5 -76t-120.5 -48t-117.5 -16.5q-31 0 -71 1.5t-82 7.5 t-82 16.5t-71.5 28t-50.5 43.5t-19 62z" />
<glyph unicode="4" d="M46 395v11q0 6 0.5 13t1 12.5t2.5 7.5l600 917q6 9 14 13.5t17 6.5t17.5 2.5t14.5 0.5q8 0 21.5 -0.5t26 -3t22 -7.5t9.5 -15v-782q0 -19 2.5 -22t16.5 -3h167q11 0 21 -2t10 -16v-148q0 -24 -20 -24h-182q-11 0 -13 -2.5t-2 -17.5v-325q0 -5 -3.5 -16t-23.5 -11h-178 q-14 0 -17 9t-3 14v319q0 11 -0.5 17t-4.5 9t-12 3.5t-23 0.5h-437q-19 0 -31.5 12.5t-12.5 26.5zM235 558q0 -8 6.5 -10t25.5 -2h278q13 0 16.5 6t5.5 14v401q0 14 -3.5 26.5t-14.5 12.5q-8 0 -15 -8l-14 -13l-274 -410q-2 -2 -3.5 -4.5t-3.5 -5.5q-2 -4 -4 -7z" />
<glyph unicode="5" d="M84 111q0 21 10.5 37.5t27 28.5t38 18.5t43.5 6.5q37 0 69 -23t63.5 -51t64 -51t70.5 -23q49 0 85 17t62.5 45t43.5 64t27.5 74t14.5 74.5t4 66.5q0 71 -14 122t-37.5 87t-53 58t-60 34.5t-59.5 16.5t-51 4q-25 0 -51 -8t-49 -19t-41.5 -22.5t-29.5 -18.5q-6 -2 -10 -4.5 t-8.5 -4.5t-10.5 -3.5t-16 -1.5q-22 0 -35 6.5t-14 22.5l30 676h556q9 0 14.5 3.5t9 9t6 12.5t7.5 15h69l-27 -215h-538l-15 -307q18 6 42.5 11t53 8.5t57.5 6t56 2.5q42 0 92 -11t101 -33t98.5 -56t84.5 -80.5t59 -106t22 -131.5q0 -96 -23 -170t-62.5 -129t-92 -92 t-111.5 -60t-121.5 -33t-120.5 -10q-18 0 -49.5 2.5t-68 8t-74.5 15.5t-68.5 25t-50 36.5t-19.5 49.5z" />
<glyph unicode="6" d="M60 506q0 136 42 246t126 206.5t209.5 185t293.5 180.5q9 5 28 14t41 18t44.5 15.5t40.5 6.5q33 0 47.5 -3t14.5 -17q0 -10 -24.5 -28.5t-57.5 -38.5t-65 -39t-47 -29q-30 -21 -78 -56.5t-97 -79.5t-89 -92.5t-55 -94.5q14 4 34 7t47 3q104 0 190.5 -37t148.5 -100.5 t96.5 -148.5t34.5 -181q0 -98 -35 -183.5t-98 -149t-149.5 -100t-188.5 -36.5q-74 0 -136.5 21t-113 58.5t-89 88.5t-64 110t-38.5 123.5t-13 130.5zM302 450q0 -41 4 -86.5t14 -89.5t26.5 -83.5t41.5 -70t59 -48t79 -17.5q60 0 100 33.5t64 86t34 116.5t10 125 q0 78 -11 151.5t-39 130t-76 91t-123 34.5q-56 0 -92 -28.5t-56 -79t-27.5 -118.5t-7.5 -147z" />
<glyph unicode="7" d="M60 961l60 345q1 3 3.5 9t8.5 11.5t16 9.5t26 4h759q26 0 46.5 -9t20.5 -35q0 -15 -4.5 -43t-15.5 -52l-553 -1227h-130v36q21 49 53.5 121t71.5 157t81.5 178t83.5 183.5t79 173.5t67 148.5t46.5 108t19.5 52.5h-537q-27 0 -42 -12.5t-20 -26.5l-53 -130q-7 -17 -14 -23 t-30 -6q-25 0 -35 9t-8 18z" />
<glyph unicode="8" d="M142 316q0 62 19 113.5t51.5 96t76.5 83.5t95 77q-40 40 -77 79.5t-65.5 82.5t-45.5 91t-17 106q0 75 24 136.5t68.5 105.5t109 68.5t145.5 24.5q72 0 136 -23t112 -64.5t76 -99.5t28 -127q0 -29 -10.5 -61t-27.5 -63.5t-40 -62.5t-48.5 -57.5t-51.5 -47.5t-49 -34 q50 -42 96 -82.5t81 -88t56 -105t21 -132.5q0 -72 -28 -137t-77.5 -113.5t-117 -77.5t-145.5 -29q-77 0 -148.5 24t-126.5 68.5t-87.5 107.5t-32.5 141zM345 310q0 -54 13 -101.5t38 -83.5t61 -57t82 -21q27 0 55 14.5t51 46t37.5 80.5t14.5 118q0 44 -24.5 88.5t-60 85 t-76 75t-72.5 59.5q-59 -45 -89 -123t-30 -181zM376 1118q0 -51 16.5 -94.5t44 -81t63.5 -71t74 -65.5q5 -5 9 -5t9.5 3.5t15.5 12.5q21 22 36 51t24 61.5t13.5 67.5t4.5 70q0 45 -8.5 89t-28 78t-50.5 55t-75 21q-36 0 -64 -15.5t-46.5 -41.5t-28 -61t-9.5 -74z" />
<glyph unicode="9" d="M52 899q0 90 31 176t88.5 154t140 109.5t185.5 41.5q118 0 210.5 -43t156.5 -116t98 -169.5t34 -203.5q0 -138 -44.5 -259.5t-123.5 -223t-188 -182t-238 -136.5q-27 -12 -58.5 -25t-66.5 -24t-73 -18t-77 -7q-23 0 -34 3t-11 17q0 12 12.5 22t28.5 18q60 31 123 67.5 t123 79.5t115 93.5t100 110.5q6 7 13.5 18.5t15.5 23.5t15.5 24t12.5 21q-40 -11 -80.5 -18t-86.5 -7q-102 0 -180.5 40t-132 104t-81.5 145t-28 164zM307 884q0 -62 15 -125t44.5 -113.5t73.5 -82.5t102 -32q40 0 78.5 13t70.5 38q15 11 23.5 45t13.5 76t6.5 84.5t1.5 71.5 q0 41 -2.5 89.5t-10.5 97.5t-23 94.5t-40.5 81t-63 56.5t-89.5 21q-65 0 -104.5 -40t-60.5 -101.5t-28 -134.5t-7 -139z" />
<glyph unicode=":" horiz-adv-x="594" d="M130 127q0 34 13 64.5t36 53.5t53 36t65 13q34 0 64.5 -13t53.5 -36t36 -53.5t13 -64.5q0 -35 -13 -65t-36 -53t-53.5 -36t-64.5 -13q-35 0 -65 13t-53 36t-36 53t-13 65zM130 775q0 34 13 64.5t36 53.5t53 36t65 13q34 0 64.5 -13t53.5 -36t36 -53.5t13 -64.5 q0 -35 -13 -65t-36 -53t-53.5 -36t-64.5 -13q-35 0 -65 13t-53 36t-36 53t-13 65z" />
<glyph unicode=";" horiz-adv-x="600" d="M121 143q0 38 12 67.5t34 49.5t51.5 30.5t65.5 10.5q62 0 100.5 -23.5t59.5 -57t28 -70t7 -63.5q0 -54 -17 -106t-44.5 -98t-63.5 -85t-74 -67q-15 -11 -34.5 -22t-36.5 -11q-20 0 -25 13t-5 24q1 13 8.5 24t18.5 20t22.5 17.5t20.5 16.5q14 14 29 31t27 36t20 39t8 40 q0 8 -2.5 17t-19.5 9q-32 0 -65.5 10t-61.5 30t-45.5 49.5t-17.5 68.5zM138 772q0 34 13 64.5t36 53.5t53 36t65 13q34 0 64.5 -13t53.5 -36t36 -53.5t13 -64.5q0 -35 -13 -65t-36 -53t-53.5 -36t-64.5 -13q-35 0 -65 13t-53 36t-36 53t-13 65z" />
<glyph unicode="&#x3c;" d="M154 570v106l741 433v-218l-457 -266q112 -67 228.5 -136.5t228.5 -135.5v-224z" />
<glyph unicode="=" d="M70 347v187h910v-187h-910zM70 717v187h910v-187h-910z" />
<glyph unicode="&#x3e;" d="M154 130v224q112 66 228.5 135.5t228.5 136.5l-457 266v218l741 -433v-106z" />
<glyph unicode="?" horiz-adv-x="778" d="M90 1309q0 30 9 56.5t29 46.5t52.5 31.5t79.5 11.5q84 0 156 -35t124.5 -94.5t82.5 -137t30 -162.5q0 -59 -18 -119t-50 -113.5t-76 -96.5t-96 -68q-25 -12 -50.5 -22t-45.5 -24.5t-33 -36.5t-13 -58q0 -21 2 -31t6.5 -18.5t10.5 -19.5t15 -33q0 -2 -4.5 -7t-10 -9.5 t-11 -8t-7.5 -3.5q-8 0 -19.5 14.5t-23.5 38t-23.5 52.5t-21 57.5t-16 54t-7.5 41.5q0 64 25 104t64.5 67t88.5 45t96 38q31 13 58.5 30t48 39.5t32.5 52t12 67.5q0 46 -21 76t-67 47.5t-120 24t-180 6.5q-18 1 -37 8.5t-34.5 19.5t-26 29.5t-10.5 38.5zM116 115q0 31 12 59 t32.5 49t48 33t59.5 12q31 0 59 -12t48 -33t32 -49t12 -59t-12 -59t-32 -49.5t-48 -34t-59 -12.5q-32 0 -59.5 12.5t-48 34t-32.5 49.5t-12 59z" />
<glyph unicode="@" horiz-adv-x="2049" d="M150 446q0 134 32.5 261.5t92.5 241t144.5 208.5t189 164t226.5 107.5t256 38.5q126 0 233 -28.5t193.5 -78.5t152 -119t109.5 -150.5t66.5 -171.5t22.5 -183q0 -111 -24 -209t-66 -180.5t-98.5 -147.5t-121.5 -110.5t-135 -69.5t-139 -24q-31 0 -72.5 3t-78.5 17 t-63 44.5t-26 84.5q0 44 5.5 73t10.5 53q-8 -8 -18 -16t-21 -18q-34 -30 -75 -65.5t-82 -66t-78 -51t-63 -20.5q-32 0 -55 15.5t-39 41t-26 57t-15.5 63.5t-7.5 60.5t-2 48.5q0 96 33.5 185t90.5 167t133.5 142t163.5 110t179 71.5t181 25.5q18 0 27.5 -5.5t14 -14.5 t5 -19.5t0.5 -19.5l-152 -697l1 2l-2 -16q-1 -6 -1.5 -12t-0.5 -9q0 -46 25.5 -70.5t66.5 -24.5q54 0 103.5 25.5t93 69.5t79.5 101.5t61.5 122t39.5 131t14 127.5q0 119 -41.5 228t-123 194t-201.5 138t-277 61q-111 -7 -214 -44.5t-192.5 -98.5t-163 -142.5t-126 -177.5 t-81.5 -203.5t-29 -219.5q0 -173 61 -317t169 -248.5t255.5 -162.5t320.5 -58q133 0 246 38.5t204.5 109.5t162.5 171.5t120 223.5h97l28 -41q-52 -137 -133.5 -249.5t-190 -195.5t-242.5 -132.5t-291 -59.5q-134 0 -256 31t-227 88.5t-189.5 140t-144.5 184.5t-92.5 222.5 t-32.5 254.5zM772 348q0 -17 1.5 -38.5t7 -40.5t16.5 -32t31 -13q33 0 70 25.5t72 61t66.5 72t52.5 59.5l92 404q-45 -1 -91.5 -14t-88.5 -35.5t-77.5 -54t-59.5 -69.5q-48 -76 -67.5 -156t-24.5 -169z" />
<glyph unicode="A" horiz-adv-x="1541" d="M5 8v39q0 8 8 8q19 1 44.5 5.5t52 19t51.5 43t42 78.5l402 1166q0 -1 0.5 1t0.5 4q0 7 -5.5 17.5t-5.5 15.5t4 5h290q2 -1 5.5 -2t5.5 -6l423 -1187q10 -28 19 -48t21.5 -35.5t31.5 -28t49 -25.5q14 -7 38 -15t46 -8q5 0 6.5 -3t1.5 -6v-38q0 -2 -1.5 -5t-6.5 -3h-702 q-5 0 -6.5 3t-1.5 5v39q0 2 1.5 5t6.5 3q4 0 8 0.5t6 0.5q11 1 31.5 2t44.5 3.5t48.5 8t44.5 16t33 27.5t13 42q0 6 -2 14l-131 361q-1 2 -3.5 9t-8 14.5t-14 13.5t-20.5 6h-361q-13 0 -22 -6t-15 -13t-9.5 -14t-3.5 -8q-32 -94 -54 -158.5t-36.5 -106.5t-22.5 -65t-12 -34 q-4 -10 -4 -12v-3q0 -3 1 -6.5t2 -6.5q8 -25 29.5 -41.5t49.5 -26t57.5 -13.5t52.5 -4h26q5 0 6.5 -3t1.5 -5v-39q0 -2 -1.5 -5t-6.5 -3h-541q-8 0 -8 8zM525 697q0 -6 3 -9.5t12 -3.5h300q11 0 14.5 4.5t3.5 10.5q0 5 -1 9t-3 9l-133 365q-5 14 -15 20.5t-18 6.5t-18 -7.5 t-15 -20.5l-126 -364q-2 -5 -3 -10t-1 -10z" />
<glyph unicode="B" horiz-adv-x="1482" d="M10 8v39q0 2 1.5 5t6.5 3q19 0 48 2t61.5 7.5t65.5 15.5t59 25t42.5 36t16.5 50v1025q0 51 -15 79.5t-40.5 42.5t-59.5 17.5t-73 3.5h-57q-5 0 -6.5 3t-1.5 5v40q0 2 1.5 5t6.5 3q1 0 10.5 0.5t33.5 0.5t65 0.5t107 0.5q14 0 48.5 1t79 2t94 2.5t94 2.5t79.5 2t51 1 q51 0 113.5 -3.5t126 -15.5t123.5 -34.5t106.5 -60t74.5 -92.5t28 -132q0 -46 -14.5 -84t-37 -67.5t-48.5 -51t-48.5 -36t-39 -21.5t-18.5 -8q57 -32 108.5 -70t90.5 -85.5t61.5 -104.5t22.5 -126q0 -81 -22 -143t-58 -108t-82.5 -77.5t-95.5 -52t-97.5 -32t-88.5 -16.5 t-67.5 -6t-35.5 -1h-812q-5 0 -6.5 3t-1.5 5zM599 871q0 -3 3 -11t20 -8h156q48 0 89.5 17.5t72 48.5t48 73.5t17.5 92.5q0 76 -18.5 125.5t-54.5 78.5t-89.5 40.5t-123.5 11.5q-15 0 -35.5 -2t-39.5 -7.5t-32 -15.5t-13 -26v-418zM601 266q0 -39 20 -70.5t51 -54t69.5 -35 t76.5 -12.5q64 0 113 24t81 67t48.5 102.5t16.5 130.5q0 85 -26 149t-73 107t-112 64.5t-143 21.5h-109q-10 0 -11.5 -3.5t-1.5 -7.5v-483z" />
<glyph unicode="C" horiz-adv-x="1589" d="M105 696q0 112 28 211.5t79 183.5t123 151t159.5 113.5t187.5 71.5t209 25q92 0 177.5 -16.5t176.5 -38.5q15 -4 31.5 -10t31 -11.5t26.5 -9.5t18 -4q2 0 13.5 4t16.5 4h46q12 0 12 -17v-326q0 -6 -4.5 -8t-19.5 -2q-3 0 -15.5 0.5t-15.5 5.5q-2 3 -7.5 12t-12 18.5 t-12 18t-6.5 11.5q-38 75 -83 126.5t-99.5 83.5t-118.5 46.5t-139 14.5q-95 0 -168.5 -22t-128.5 -62t-92.5 -96t-61 -122.5t-34 -142t-10.5 -155.5q0 -85 12 -168.5t39 -159t69.5 -140t102.5 -112t140 -74.5t181 -27q85 0 158.5 25.5t134.5 69t108.5 100t81.5 118.5 q2 5 4.5 5.5t7.5 0.5h51q3 0 6.5 -2.5t3.5 -10.5q0 -3 -4.5 -15.5t-9.5 -21.5l-138 -304q-2 -3 -6 -5t-7 -2q-24 0 -33.5 4t-19.5 4q-30 0 -79.5 -10.5t-107 -22.5t-116 -22.5t-104.5 -10.5q-105 0 -204 23t-186 66.5t-159 107t-124 143.5t-80.5 176.5t-28.5 206.5z" />
<glyph unicode="D" horiz-adv-x="1754" d="M45 8v43q0 1 1 4.5t7 3.5h22q21 0 52 2.5t60 14t49.5 35t20.5 64.5v1066q0 31 -13.5 52.5t-34 35t-45.5 19.5t-47 6h-64q-6 0 -7 3.5t-1 4.5v43q0 1 1 4.5t7 3.5h22l411 7q58 1 125.5 1.5t125.5 0.5q63 0 113 -1.5t96 -6t93 -11.5t105 -19q111 -23 206.5 -85t165 -150 t109 -195t39.5 -219q0 -108 -30 -204.5t-83.5 -178t-127 -147t-161.5 -111t-187 -70t-203 -24.5h-790h-29q-6 0 -7 3.5t-1 4.5zM542 155q0 -29 18.5 -45t49 -23.5t71.5 -8.5t86 -1q297 0 445.5 164t148.5 478q0 138 -33.5 253t-102 198t-172 129t-244.5 46h-242 q-15 0 -20 -6.5t-5 -20.5v-1158v-5z" />
<glyph unicode="E" horiz-adv-x="1309" d="M7 8v14v29q0 1 1 4.5t7 3.5h22q42 3 86 3.5t80 11t59 37t23 82.5v1024q0 39 -16 63.5t-42 39.5t-59 22.5t-67 12.5h-21q-5 0 -6.5 3t-1.5 5v39q0 2 1.5 5t6.5 3h996q18 0 26 -6.5t10 -28.5l18 -320q0 -5 -8.5 -7.5t-15.5 -2.5q-8 0 -16 2t-11 6q-7 10 -10 29.5t-6.5 43.5 t-10 50t-19.5 48t-35.5 38.5t-57.5 22.5h-357q-13 0 -13 -13v-477q0 -10 10 -10h286q25 0 49.5 6.5t43 23.5t30 47.5t11.5 78.5q0 8 8 8h39q8 0 8 -8v-458q0 -5 -3 -6.5t-5 -1.5h-39q-5 0 -6.5 3t-1.5 5q0 56 -11.5 90.5t-30.5 54t-43.5 26t-51.5 6.5h-283q-10 0 -10 -10 v-437q0 -29 9 -46.5t24.5 -26.5t35.5 -12t42 -3h273q58 0 97 26.5t63 64.5t35.5 79t14.5 70q2 13 13 20.5t25 7.5q5 0 12 -4t7 -9l-33 -366q-2 -5 -5.5 -9.5t-8.5 -4.5h-1159q-6 0 -7 3.5t-1 4.5z" />
<glyph unicode="F" horiz-adv-x="1212" d="M86 8v39q0 2 1 5t7 3q11 0 28.5 4.5t26.5 8.5q43 19 70.5 50.5t27.5 76.5v1065q0 38 -21 60t-47.5 33t-50 14t-29.5 3h-4q-5 0 -6.5 3t-1.5 5v24q0 2 1.5 5t6.5 3h988q12 -2 18 -5.5t5 -17.5v-272q0 -12 -6.5 -15t-15.5 -3h-20q-2 1 -5.5 17.5t-9.5 39t-14.5 45 t-19.5 35.5q-14 15 -27 25t-29 16t-37 8t-51 2h-319q-20 0 -20 -20v-423q0 -23 24 -23h332q14 0 37 2.5t44.5 15t37 39t15.5 74.5q0 8 8 8h39q8 0 8 -8v-402q0 -5 -3 -6.5t-5 -1.5h-39q-5 0 -6.5 3t-1.5 5q0 54 -15.5 83.5t-36.5 43.5t-43.5 16.5t-36.5 2.5h-334 q-12 0 -18 -7.5t-6 -19.5v-479q0 -27 10.5 -45.5t29 -32t43.5 -23.5t55 -19q15 -5 32 -9t28 -4q6 0 7 -3.5t1 -4.5v-39q0 -2 -1.5 -5t-6.5 -3h-636q-5 0 -6.5 3t-1.5 5z" />
<glyph unicode="G" horiz-adv-x="1666" d="M115 717q0 101 27 194t76 174.5t117.5 148t150.5 114.5t175.5 74t192.5 26q53 0 108 -6.5t107.5 -16.5t99.5 -22t82.5 -22t58 -16.5t25.5 -6.5h12q8 0 12.5 1.5t8 3.5t7.5 3.5t12 1.5h40q2 0 6.5 -1.5t4.5 -9.5v-333q0 -11 -9.5 -15t-16.5 -4q-9 1 -16 10t-13 20t-10 21 t-5 15q-25 78 -70.5 131.5t-107 87.5t-135 49t-154.5 15q-139 0 -232 -51t-149.5 -137t-80 -198.5t-23.5 -236.5q0 -85 17 -167t48.5 -155.5t76.5 -135t100.5 -106t120 -69.5t136.5 -25q81 0 142.5 17.5t99.5 68.5v221q0 43 -10.5 76.5t-38.5 56.5t-76 35t-123 12 q-6 0 -8.5 11.5t-2.5 19.5q0 5 2.5 17t8.5 12h696q8 0 9.5 -11.5t1.5 -17.5q0 -5 -2 -16t-9 -15q-27 -11 -55.5 -19t-52.5 -21t-39.5 -35.5t-15.5 -61.5v-292q0 -8 -6.5 -13t-20.5 -11q-56 -27 -127 -51t-146 -42.5t-149 -29.5t-135 -11q-155 0 -290 51.5t-236 148 t-159 234.5t-58 310z" />
<glyph unicode="H" horiz-adv-x="1802" d="M60 8v54q0 2 1.5 5t6.5 3q31 0 62.5 4.5t57.5 19.5t42.5 43t16.5 76v1002q0 34 -11 57t-31 37.5t-48 21.5t-62 9q-8 0 -8 8v54q0 8 7 8h592q5 0 6.5 -3t1.5 -5v-54q0 -6 -8 -6q-30 0 -58 -5.5t-49 -20.5t-34 -42.5t-13 -72.5v-412q0 -10 3 -13t13 -3h698q10 0 13 3t3 13 v428q0 35 -22 58t-55.5 36.5t-72.5 20t-72 8.5q-8 0 -8 8v54q0 8 7 8h667q5 0 6.5 -3t1.5 -5v-54q0 -6 -8 -6q-30 0 -58.5 -5.5t-51 -20.5t-36 -42.5t-13.5 -72.5v-990q0 -26 7.5 -46.5t23.5 -40.5q16 -22 52.5 -37t103.5 -17q8 0 8 -8v-54q0 -8 -8 -8h-726q-5 0 -6.5 3 t-1.5 5v54q0 2 1.5 5t6.5 3q30 0 73 4t83.5 17.5t69 39t28.5 69.5v432q0 10 -3 13t-13 3h-698q-10 0 -13 -3t-3 -13v-442q0 -34 15 -57t39.5 -37t56.5 -20t66 -6q6 0 7 -3t1 -5v-54q0 -2 -1 -5t-6 -3h-642q-5 0 -6.5 3t-1.5 5z" />
<glyph unicode="I" horiz-adv-x="789" d="M90 8v54q0 2 1.5 5t6.5 3q35 0 63.5 4.5t48.5 19.5t31 43t11 76v1007q0 34 -10.5 57t-30 37t-48 20t-63.5 6q-8 0 -8 8v54q0 8 8 8h591q5 0 6.5 -3t1.5 -5v-54q0 -2 -1.5 -5t-6.5 -3q-35 0 -63.5 -4.5t-48.5 -19.5t-31 -43t-11 -76v-1007q0 -34 10.5 -57t30 -37t48 -20 t63.5 -6q8 0 8 -8v-54q0 -3 -1 -5.5t-7 -2.5h-591q-5 0 -6.5 3t-1.5 5z" />
<glyph unicode="J" horiz-adv-x="783" d="M-250 -535q0 21 9.5 39.5t24 32.5t32.5 22t36 8q30 0 52 -7t38.5 -17.5t29 -23t26 -23t28 -17.5t35.5 -7q45 0 76.5 18t52 49.5t32 73.5t17 89.5t6.5 98t1 99.5v1335q0 38 -13.5 61.5t-38.5 36.5t-61 17.5t-81 4.5q-8 0 -8 8v39q0 8 8 8h633q5 0 6.5 -3t1.5 -5v-39 q0 -2 -1.5 -5t-6.5 -3q-31 0 -59 -4.5t-49 -19.5t-33.5 -43t-12.5 -76v-1222q0 -74 -14.5 -149.5t-44 -145.5t-74.5 -131t-105 -106.5t-135.5 -71.5t-167.5 -26q-125 0 -182 29.5t-58 75.5z" />
<glyph unicode="K" horiz-adv-x="1659" d="M40 8v34q0 8 8 8q34 1 69.5 8.5t64.5 22t47.5 37.5t18.5 57v1060q0 34 -18.5 57t-47.5 37.5t-64.5 21.5t-69.5 9q-8 0 -8 8v34q0 8 7 8h678q5 0 6.5 -3t1.5 -5v-34q0 -6 -8 -6q-29 0 -62.5 -5t-62.5 -19t-48 -39t-19 -66v-411q0 -42 3 -65t14 -23q6 0 11.5 0.5t10.5 3.5 q57 26 102.5 63t84 81t72 93t66.5 100q18 28 38 55.5t36.5 53.5t27.5 50.5t11 48.5q0 27 -13 42.5t-33 23t-43 9.5t-43 2h-10q-5 0 -6.5 3t-1.5 5v34q0 2 1 5t7 3h608q5 0 6.5 -3t1.5 -5v-34q0 -3 -3 -7.5t-9 -4.5q-61 -2 -110.5 -10t-90.5 -27t-75.5 -52.5t-65.5 -85.5 q-53 -90 -95 -154t-74.5 -108t-55.5 -71t-38.5 -44.5t-24 -29t-10.5 -22.5q5 -10 23 -26.5t47.5 -43.5t70.5 -67t93 -98.5t115 -138t136 -183.5q35 -51 88 -82t119 -45q34 -8 54 -12t32 -5.5t19.5 -2t16.5 -0.5q5 0 6.5 -3t1.5 -5v-32q0 -8 -8 -8h-744q-8 0 -8 8v34q0 7 8 8 q13 2 36.5 1.5t46 2.5t39.5 14t17 36q-2 17 -22.5 50t-50.5 72.5t-64.5 80.5t-63.5 74q-35 39 -66.5 79.5t-64.5 74t-69 54.5t-78 21h-19q-8 0 -9 -3.5t-1 -10.5v-423q0 -45 18.5 -70t47 -37t62.5 -15t64 -3q5 0 6.5 -3t1.5 -5v-32q0 -2 -1.5 -5t-6.5 -3h-678q-7 0 -7 8z " />
<glyph unicode="L" horiz-adv-x="1299" d="M40 8v54q0 2 1 5t7 3h24q3 0 19.5 1.5t38 5t44.5 9.5t39 15q35 20 52 51.5t17 70.5v998q0 36 -23.5 59t-56 36.5t-66 18.5t-53.5 5h-22q-5 0 -6.5 3.5t-1.5 4.5v54q0 2 1.5 5t6.5 3h767q5 0 6.5 -3t1.5 -5v-54q0 -2 -1.5 -5t-6.5 -3h-43q-56 0 -104 -9t-78 -20 q-23 -8 -29.5 -26.5t-6.5 -63.5v-1049q2 -17 18 -32t36 -15h350q35 0 66.5 15t58.5 38.5t50 51.5t42 54t34 46.5t26 29.5q5 3 11.5 6t15.5 3q17 0 17 -13q0 -6 -3 -12l-166 -326q-4 -8 -9 -13t-12 -5h-1054q-5 0 -6.5 3t-1.5 5z" />
<glyph unicode="M" horiz-adv-x="1988" d="M26 8v44q0 2 1.5 5t6.5 3q66 0 102.5 15.5t54 43t21.5 65.5t6 82q6 129 14.5 250.5t16.5 239t14 232.5t6 231v37q0 23 -15 40.5t-35.5 29.5t-41.5 18t-33 6q-8 0 -8 8v44q0 2 1 5t7 3h354q11 -2 18 -7.5t13 -14.5l435 -970q7 -17 18 -17t16 5t8 13l430 951q10 19 20 29.5 t20 10.5h352q6 0 7 -3t1 -5v-44q0 -2 -1.5 -5t-6.5 -3q-2 0 -23.5 -4t-47 -15.5t-46.5 -33t-21 -56.5l58 -1065q1 -29 15.5 -49t35.5 -33t44.5 -19.5t44 -10t35 -4t15.5 -0.5q5 0 6.5 -3t1.5 -5v-44q0 -2 -1.5 -5t-6.5 -3h-658q-8 0 -8 8v44q0 8 8 8q24 0 54.5 2.5 t58.5 11.5t47 26.5t19 46.5l-46 817q-1 10 -5 10t-8 -9l-438 -948q-5 -11 -13.5 -14t-29.5 -3q-36 0 -53.5 2t-23.5 16l-426 939l-4 11q-2 4 -6 3q-7 0 -7 -13q0 -30 -3 -88t-8 -130.5t-10 -153.5t-10 -157t-8 -141.5t-3 -107.5v-41q4 -19 20 -34t40 -25t53 -15t61 -5 q5 0 5.5 -3t0.5 -5v-44q0 -8 -6 -8h-497q-8 0 -8 8z" />
<glyph unicode="N" horiz-adv-x="1777" d="M60 8v44q0 8 8 8h25q14 0 27.5 1t24.5 2t17 4q25 12 41 32t24.5 46t11.5 57t3 66v999q0 27 -21.5 43.5t-50 25t-58 11.5t-44.5 3q-5 0 -6.5 3t-1.5 5v44q0 2 1.5 5t6.5 3h453l862 -954q5 -5 7 -7.5t5 -2.5q4 0 5 3t1 6v594q0 99 -7 158.5t-26 91t-51 41.5t-82 10h-51 q-5 0 -6.5 3t-1.5 5v44q0 2 1.5 5t6.5 3h550q6 0 7 -3t1 -5v-44q0 -2 -1.5 -5t-6.5 -3q-20 0 -51.5 -8t-61.5 -23t-51.5 -37t-21.5 -50v-1183q0 -17 -8 -28.5t-20.5 -18.5t-27 -10.5t-26.5 -3.5q-20 0 -46.5 8.5t-52.5 37.5l-944 1047q-7 7 -10 8.5t-8 1.5t-5 -10v-893 q0 -28 13.5 -48.5t34.5 -35t46.5 -23t50 -13.5t44 -6.5t29.5 -1.5q5 0 7 -4q1 -2 1 -4v-44q0 -2 -1.5 -5t-6.5 -3h-550q-2 0 -5 2.5t-3 5.5z" />
<glyph unicode="O" horiz-adv-x="1826" d="M110 714q0 104 28.5 199t81.5 177t128.5 149t168.5 114t202 73t229 26q104 0 201.5 -25.5t182.5 -72t155.5 -111.5t121.5 -145t79 -172.5t28 -192.5q0 -94 -27 -186.5t-78 -177t-123.5 -156.5t-162.5 -125.5t-197 -83.5t-226 -30q-35 0 -87.5 6t-115 22t-130.5 42 t-133.5 66.5t-124.5 96t-103.5 129t-71 167.5t-26.5 211zM404 751q0 -81 16.5 -162t48.5 -156t79 -140.5t107 -114t133.5 -76t159.5 -27.5q121 0 210 51.5t147.5 136.5t87 195.5t28.5 228.5q0 86 -16.5 168.5t-48 157t-78 137t-107 108.5t-134 71.5t-159.5 25.5 q-77 0 -142 -24t-117.5 -65.5t-92.5 -99t-67 -124.5t-41 -141.5t-14 -149.5z" />
<glyph unicode="P" horiz-adv-x="1301" d="M40 1383q0 5 2 15t11 12h7q6 0 19.5 0.5t37 1t61.5 1.5q55 1 117.5 3t126.5 4t126.5 3.5t117.5 2.5h141q80 0 156 -27.5t135 -80t95 -130.5t36 -180q0 -64 -19 -122.5t-51.5 -107.5t-75 -88.5t-89 -66.5t-94.5 -41q-42 -12 -79 -11h-11l-239 12h-8q-7 0 -10 -2t-4 -4 t-1 -8v-376q0 -39 21.5 -64.5t56 -40.5t77.5 -21.5t85 -6.5q6 0 7 -3t1 -5v-44q0 -2 -1.5 -5t-6.5 -3h-688q-8 0 -8 10v42q0 1 1 4.5t7 3.5q34 0 63.5 10t51.5 27t35 41t13 52v1016q0 50 -10 78.5t-29.5 43t-49 18t-68.5 3.5h-45q-11 0 -16 12.5t-5 21.5zM548 726l2 -30 q1 -8 4.5 -14.5t14.5 -7.5q4 0 14.5 -1t24.5 -2t30.5 -2t32.5 -1q67 0 117.5 27t84 75.5t50 115t16.5 146.5q0 165 -66 242t-194 77q-14 -1 -26 -1h-24q-12 0 -25.5 -1t-30.5 -2q-6 0 -15.5 -2.5t-9.5 -13.5v-605z" />
<glyph unicode="Q" horiz-adv-x="1822" d="M110 707q0 165 62 301.5t170.5 235t257 152.5t322.5 54q111 0 212.5 -24.5t189 -69.5t159.5 -110.5t122.5 -146.5t78.5 -177.5t28 -204.5q0 -119 -40 -224t-110.5 -194t-166 -161t-205.5 -125q43 -32 85.5 -64t79.5 -60.5t66.5 -51.5t47.5 -38q10 -8 13.5 -11t5.5 -4 q42 -34 82.5 -63t75.5 -43q5 -2 9.5 -3t11.5 -3h-1q15 -3 32 -7.5t31.5 -10t23.5 -11t9 -11.5q0 -19 -15.5 -29.5t-39.5 -15t-52.5 -5.5t-53.5 -1q-82 0 -148 19t-129 56q-47 28 -88 56.5t-78.5 57.5t-73.5 59.5t-74 64.5q-32 29 -63.5 52.5t-66.5 27.5q-20 2 -42 4t-42 6 q-139 25 -263.5 88.5t-218.5 158t-149 215.5t-55 261zM402 747q0 -84 17.5 -166.5t51 -157.5t82 -138.5t110.5 -110t137 -73t161 -26.5q97 0 182 43t147.5 122t98.5 191t36 249q0 125 -34 242.5t-101.5 210t-169 152t-236.5 70.5q-111 0 -200.5 -49t-152 -132.5t-96 -193.5 t-33.5 -233z" />
<glyph unicode="R" horiz-adv-x="1509" d="M40 1358v44q0 2 1 4.5t7 3.5h4q4 0 15 0.5t32 1t59 1.5q55 1 117.5 3t126.5 4t126.5 3.5t117.5 1.5h101q79 0 161 -27t148.5 -79.5t109 -130.5t42.5 -180q0 -66 -18 -117.5t-49.5 -91t-75 -69.5t-94.5 -53l303 -480q39 -62 91 -112.5t121 -70.5q8 -2 9.5 -5.5t1.5 -8.5 q0 -15 -8 -20t-25 -5q-42 0 -95.5 5.5t-107.5 18t-102.5 32.5t-81.5 50q-32 28 -65 71t-66.5 92.5t-66 103t-63 104.5t-58.5 95t-51 75l-156 11h-8q-7 0 -10 -2t-4 -4t-1 -8v-426q0 -27 7 -47t23.5 -34.5t43 -23.5t64.5 -14q6 -1 17.5 -3t25 -4.5t26.5 -4.5t22 -2q6 0 7 -3 t1 -5v-44q0 -2 -1.5 -5t-6.5 -3h-705q-5 0 -6.5 14t-1.5 26v12q0 1 1 4.5t7 3.5t19 2t27 4t26 4.5t17 3.5q57 13 79.5 42.5t22.5 73.5v1016q0 50 -21 79t-48.5 43.5t-53 18t-34.5 3.5h-38q-5 0 -6.5 3t-1.5 5zM528 763l2 -30q1 -8 4.5 -14.5t14.5 -7.5q9 -1 27 -3.5t50 -2.5 q88 0 145 27t90 72.5t45.5 104.5t12.5 123q0 67 -21 127t-58.5 104t-90 70t-115.5 26q-14 0 -22 -0.5t-15.5 -1t-17 -1t-26.5 -1.5q-6 0 -15.5 -2.5t-9.5 -13.5v-576z" />
<glyph unicode="S" horiz-adv-x="1087" d="M90 1125q0 51 18.5 95t49.5 80t72.5 64.5t88.5 48t95.5 29.5t94.5 10q37 0 74.5 -6.5t74 -15.5t73.5 -19.5t73 -19.5l66 6q9 0 11.5 -7.5t3.5 -13.5l29 -235q0 -5 -13 -7t-20 -2q-6 0 -18 1.5t-14 3.5q-3 3 -7.5 12.5t-9.5 21t-10.5 23.5t-11.5 21q-48 74 -123 110.5 t-165 36.5q-39 0 -73 -9t-59 -28.5t-39.5 -49.5t-14.5 -72q0 -61 28.5 -110.5t75 -93t106 -84.5t121 -83.5t121 -90.5t106 -106t75 -129t28.5 -160q0 -59 -20.5 -110t-55.5 -92.5t-82 -73.5t-100.5 -53.5t-110 -32.5t-110.5 -11q-68 0 -118.5 10t-87 22.5t-61.5 22.5t-42 10 q-6 0 -9 -1l-64 -10q-13 0 -16 21q-11 94 -17 146t-8.5 78t-3 33.5t-0.5 10.5q0 11 10 24t24 13q10 0 21.5 -12t22 -28t18 -32t9.5 -23q26 -55 56.5 -92.5t69.5 -60t88 -32.5t112 -10q107 0 166.5 51t59.5 164q0 65 -28.5 118t-74.5 98.5t-105 86.5t-121 83t-121 87.5 t-105 100.5t-74.5 122t-28.5 151z" />
<glyph unicode="T" horiz-adv-x="1502" d="M64 1043v33l37 342q2 11 9 21t22 10q7 0 13.5 -4t12.5 -9.5t11.5 -10.5t11.5 -7q12 -5 22.5 -6.5t23.5 -1.5h1048q13 0 23.5 1.5t22.5 6.5q6 2 11.5 7t11.5 10.5t12.5 9.5t13.5 4q15 0 22 -10t9 -21l37 -342v-33q0 -4 -6 -4h-33q-5 0 -7 3q-2 2 -4 14.5t-4 21.5 q-7 31 -13 64.5t-18 62.5t-33 50.5t-58 29.5h-340q-12 -2 -20.5 -4.5t-8.5 -23.5v-1062q0 -30 15 -53.5t40.5 -41.5t60 -29t73.5 -15q11 -1 28 -1h29q5 0 6.5 -3t1.5 -5v-39q0 -2 -1.5 -5t-6.5 -3h-777q-5 0 -6.5 3t-1.5 5v39q0 2 1.5 5t6.5 3h28q18 0 29 1q39 4 73.5 15 t60 29t40.5 41.5t15 53.5v1062q0 21 -8.5 23.5t-20.5 4.5h-339q-37 -8 -58 -29.5t-33 -50.5t-18 -62.5t-13 -64.5q-2 -9 -4 -21.5t-4 -14.5q-2 -3 -7 -3h-33q-6 0 -6 4z" />
<glyph unicode="U" horiz-adv-x="1672" d="M36 1363v39q0 8 7 8h632q5 0 6.5 -3t1.5 -5v-39q0 -2 -1.5 -5t-6.5 -3q-30 0 -61.5 -4t-58 -18t-43 -40.5t-16.5 -71.5v-701q0 -200 102 -309.5t305 -109.5q84 0 161 23.5t136 72.5t94 125t35 181v621q0 34 -2.5 70t-16.5 68t-44 55.5t-85 32.5q-25 4 -41.5 4.5 t-21.5 0.5q-8 0 -8 8v39q0 8 8 8h522q5 0 6.5 -3t1.5 -5v-39q0 -2 -2 -5t-6 -3q-36 0 -63.5 -5.5t-41.5 -11.5q-17 -7 -31 -21.5t-23.5 -31t-14.5 -34t-5 -30.5v-640q0 -141 -37 -253.5t-111.5 -191t-187.5 -121t-264 -42.5q-72 0 -148.5 11t-149 35t-136.5 62t-112 91 t-76 122t-28 156v785q0 29 -13.5 51.5t-36.5 37.5t-53 23t-64 8q-8 0 -8 8z" />
<glyph unicode="V" horiz-adv-x="1595" d="M5 1363v39q0 8 8 8h680q6 0 7 -2.5t1 -5.5v-39q0 -2 -1.5 -5t-6.5 -3h-15q-25 -4 -56.5 -8t-59 -14.5t-46 -31t-18.5 -56.5q0 -13 4.5 -30t9.5 -28l357 -866q1 -3 3 -5l3 -3q2 -2 4 -2q7 0 11 11l328 886q4 11 8.5 20.5t4.5 19.5q0 35 -23 60.5t-64 32.5q-6 1 -19.5 3 t-28.5 4.5t-29 4.5t-20 2q-8 0 -8 8v39q0 2 1 5t7 3h535q6 0 7 -3t1 -5v-39q0 -3 -1 -5.5t-7 -2.5h-37q-55 -11 -90.5 -42.5t-60 -74t-41.5 -91t-34 -93.5l-387 -1046q-9 -25 -22 -30t-36 -5h-147q-24 0 -31 22l-521 1262q-9 22 -23.5 37.5t-29.5 26t-29 16t-23 7.5 q-7 2 -16 4t-17.5 3.5t-15.5 2.5t-8 1q-8 0 -8 8z" />
<glyph unicode="W" horiz-adv-x="2352" d="M-8 1358v44q0 8 8 8h660q6 0 7 -2.5t1 -5.5v-44q0 -2 -1.5 -5t-6.5 -3h-18q-39 0 -61 -9t-33.5 -22.5t-14 -28.5t-2.5 -27q0 -22 6.5 -41t11.5 -40l359 -865q5 -10 19 -10q6 0 9 3t6 8l173 408l-219 526q-13 31 -40 55t-52 30q-14 5 -32 9t-23 4q-8 0 -8 8v44q0 8 8 8 h950q6 0 7 -3t1 -5v-44q0 -3 -1 -5.5t-7 -2.5h-37q-36 0 -63.5 -10t-49.5 -31t-40.5 -53t-36.5 -75l-123 -286l239 -575q5 -10 19 -10q10 0 15 11l399 935q12 28 12 47q0 26 -22.5 36.5t-83.5 10.5h-62q-8 0 -8 8v44q0 2 1 5t7 3h475q6 0 7 -3t1 -5v-44q0 -3 -1 -5.5 t-7 -2.5h-47q-24 0 -42 -9.5t-33.5 -29t-30 -48.5t-30.5 -68l-507 -1187q-11 -24 -23 -29.5t-35 -5.5h-144q-24 0 -31 22l-222 537l-224 -524q-11 -24 -23 -29.5t-35 -5.5h-145q-12 0 -19 5.5t-12 17.5l-518 1246q-11 26 -32 43.5t-44.5 28t-45 16t-33.5 7.5q-7 1 -17 3.5 t-20 4.5l-17 3q-8 2 -10 2q-8 0 -8 8zM1198 1283q0 -11 3 -23t10.5 -32.5t21 -53.5t35.5 -86l81 188q7 16 8.5 24t1.5 18q0 32 -68 32q-28 0 -46 -6.5t-28.5 -16t-14.5 -21.5t-4 -23z" />
<glyph unicode="X" horiz-adv-x="1725" d="M5 8v11v33q0 8 8 8h39q35 0 70.5 15.5t70 39.5t65.5 53t56 56t43 49t25 32l314 410q-95 123 -165 214.5t-122 158t-89.5 111t-68.5 72t-59.5 42t-60.5 21.5q-11 2 -27 5t-33 5.5t-32.5 4t-25.5 1.5q-5 0 -6.5 3t-1.5 5v44q0 2 1.5 5t6.5 3h753q6 0 7 -3t1 -5v-44 q0 -2 -1 -5t-7 -3q-81 0 -118 -10t-37 -32q0 -5 11 -24t34 -48l201 -265q5 -7 8.5 -8.5t9.5 -1.5q9 0 14.5 7.5t12.5 15.5l193 252q10 12 23 31.5t13 37.5q0 16 -15.5 25t-38 13.5t-48 5.5t-44.5 1q-8 0 -8 8v45q0 2 1 4.5t7 2.5h571q6 0 7 -2.5t1 -5.5v-44q0 -3 -1 -5.5 t-7 -2.5q-104 0 -179 -44t-133 -120l-278 -359l495 -653q13 -17 30.5 -33t37.5 -30t41.5 -24t42.5 -14q12 -6 30 -8.5t35 -5.5t29.5 -8.5t12.5 -17.5q0 -16 -12.5 -24.5t-26.5 -8.5h-665q-5 0 -6.5 3t-1.5 5v44q0 2 1 4q1 3 7 4q9 2 28.5 1.5t39 3.5t34 16t14.5 39 q0 8 -4.5 19t-7.5 16l-315 417q-4 5 -7 7.5t-10 2.5q-8 0 -10.5 -2.5t-6.5 -7.5l-314 -407q-9 -12 -11.5 -20.5t-2.5 -19.5q0 -31 19.5 -43t45 -15t50.5 -2t36 -5q8 -4 8 -8v-44q0 -2 -1.5 -5t-6.5 -3h-581q-5 0 -6.5 3t-1.5 5z" />
<glyph unicode="Y" horiz-adv-x="1634" d="M4 1382q0 2 0.5 7t2 9.5t4.5 8t8 3.5h679q11 0 14 -10t3 -18q0 -10 -1.5 -21t-11.5 -11q-27 -2 -51 -4t-41 -9.5t-27 -22.5t-10 -42q0 -24 12 -43l305 -490q11 -17 14.5 -21t11.5 -4q7 0 12.5 8t13.5 21l241 409q14 23 28.5 51t14.5 57q0 28 -7.5 44.5t-22.5 25.5 t-36.5 13t-49.5 7q-11 1 -13 12t-2 20q0 7 2.5 17.5t14.5 10.5h503q8 0 11 -11.5t3 -16.5q0 -10 -6.5 -17t-16 -11.5t-20 -7t-19.5 -4.5q-50 -11 -86.5 -36.5t-71.5 -63.5q-5 -5 -14.5 -16t-10.5 -13l-387 -665v-353q0 -60 31 -93t110 -41q11 -1 28 -1h29q5 0 6.5 -3t1.5 -5 v-44q0 -2 -1.5 -5t-6.5 -3h-681q-5 0 -6.5 3t-1.5 5v44q0 2 1.5 5t6.5 3h28q18 0 29 1q79 8 110 41t31 93v299q0 6 -3 10l-409 654q-17 27 -36.5 54.5t-43 52t-51 43t-59.5 26.5q-5 1 -16 3.5t-23 4.5t-23 4t-16 3q-10 1 -19 12.5t-9 20.5z" />
<glyph unicode="Z" horiz-adv-x="1536" d="M77 43q0 11 4 22.5t12 20.5l905 1171q4 5 4 10q0 8 -7 9t-13 1h-499q-23 0 -48.5 -6.5t-48 -19t-40.5 -31t-25 -43.5q-4 -11 -10.5 -41.5t-18.5 -91.5q-2 -10 -16 -14.5t-31 -4.5h-9q-6 0 -11 1l-10 2t-6 3l15 345q0 3 1 10.5t3 12.5q3 8 11 10q4 1 8 1h1124q3 0 5.5 -5 t5 -11.5t4 -14t1.5 -12.5q0 -21 -13 -40l-870 -1125q-3 -5 -11.5 -17t-8.5 -20q0 -14 16 -20.5t30 -6.5h636q56 0 93 33t59.5 81.5t32.5 102.5t12 96q1 6 6 9t11 4q8 2 14 2h11q2 0 8 -1t12 -2.5t10.5 -4t4.5 -4.5v-47l-21 -348q-1 -11 -1 -21.5t-2.5 -18.5t-8 -13.5 t-17.5 -5.5h-1275q-13 0 -20.5 4.5t-11.5 11.5t-5 14.5t-1 12.5z" />
<glyph unicode="[" horiz-adv-x="780" d="M205 -342v2073h537v-116h-238q-73 0 -73 -73v-1695q0 -73 73 -73h261v-116h-560z" />
<glyph unicode="\" horiz-adv-x="725" d="M720 -27l-523.968 1479h-189.988l524.968 -1479h188.988z" />
<glyph unicode="]" horiz-adv-x="780" d="M15 -226h262q38 0 55 17.5t17 55.5v1695q0 38 -17 55.5t-55 17.5h-240v116h538v-2073h-560v116z" />
<glyph unicode="^" horiz-adv-x="1115" d="M96 679l400 700h131l392 -700h-162l-296 448l-304 -448h-161z" />
<glyph unicode="_" horiz-adv-x="1014" d="M-16 -205h1046v-115h-1046v115z" />
<glyph unicode="`" horiz-adv-x="740" d="M140 1378q0 19 7 36t19.5 30t29 20.5t36.5 7.5q23 0 46 -13.5t45 -43.5l210 -291q5 -7 6.5 -12.5t1.5 -12.5q0 -3 -1 -7t-5 -9l-16 -21q-5 -7 -13.5 -12.5t-14.5 -5.5q-11 0 -20 7l-269 217q-23 19 -42.5 46t-19.5 64z" />
<glyph unicode="a" horiz-adv-x="1017" d="M70 175q0 54 24.5 93t72.5 69t118.5 54.5t163.5 48.5q50 13 80.5 28t56.5 29q17 9 19.5 16t2.5 13v174q0 33 -9.5 61.5t-28.5 49.5t-46 33t-61 12q-29 0 -54 -10t-43 -29t-28.5 -45t-10.5 -59q0 -3 0.5 -9t1.5 -12.5t2 -11.5t1 -6q-1 -2 -16.5 -8t-38 -13.5t-49.5 -15 t-51.5 -14.5t-43 -12.5t-25.5 -6.5q-11 0 -13.5 11.5t-2.5 22.5q0 58 35 113t93.5 97.5t134.5 68.5t157 26q72 0 129 -18.5t97 -51t61 -75t21 -90.5v-477q0 -26 19.5 -46.5t50.5 -20.5q18 0 32.5 6.5t26 15t19.5 15t14 6.5q8 0 9 -6.5t1 -11.5q0 -17 -4.5 -34.5t-15.5 -25.5 q-49 -37 -87 -66.5t-69 -50.5t-56 -32t-47 -11q-20 0 -35.5 11t-27 27t-19.5 34.5t-13.5 34.5t-8.5 26t-5 9l-117 -91q-33 -23 -78 -36t-90 -13q-122 0 -185.5 55t-63.5 149zM303 199q0 -27 10.5 -44t27.5 -26t38.5 -12.5t44.5 -3.5q21 0 52 10.5t60.5 28t50.5 40t21 45.5 v165q0 11 -8 11q-2 0 -4 -1l-232 -108q-14 -10 -25.5 -18.5t-19.5 -20t-12 -27t-4 -39.5z" />
<glyph unicode="b" horiz-adv-x="1175" d="M12 1463q0 5 3 10t12 10l331 156q4 2 8.5 4t6.5 2q17 0 17 -24v-755q0 -10 2.5 -20.5t12.5 -10.5q4 0 16 6q37 17 69.5 34t64 30.5t63.5 22t67 8.5q79 0 148 -36t120.5 -98t81.5 -146.5t30 -180.5q0 -111 -39 -203.5t-108.5 -159t-165 -103t-207.5 -36.5 q-60 0 -110.5 4.5t-95.5 12t-86 17.5t-81 20q-9 2 -11.5 8.5t-2.5 15.5v1312q0 24 -13 37.5t-33 20.5t-43 11.5t-44 10.5q-6 2 -9.5 5.5t-3.5 14.5zM390 244q10 -95 62 -144t141 -49q72 0 120 28t77.5 78t42 117.5t12.5 147.5q0 78 -12 145.5t-43 118t-84 80t-135 29.5 q-27 0 -48.5 -2t-40.5 -6.5t-38 -13.5t-42 -22q-8 -5 -10 -10.5t-2 -13.5v-483z" />
<glyph unicode="c" horiz-adv-x="988" d="M90 423q1 145 44 244.5t115 160.5t167.5 88t200.5 27q22 0 52.5 -1.5t63 -6t64 -13.5t57 -24.5t41 -38t15.5 -54.5q0 -24 -9 -38.5t-25 -23t-37 -11.5t-45 -3q-28 0 -47.5 9.5t-35.5 23t-30 30t-30.5 30t-37.5 23t-51 9.5q-70 0 -115 -35.5t-70.5 -90t-35 -119.5 t-9.5 -124q0 -80 15 -147.5t48.5 -116.5t87 -76.5t129.5 -27.5q28 0 55.5 9t53 24.5t48 35.5t41.5 43q10 12 19.5 20t29.5 8q24 0 41.5 -12.5t17.5 -26.5q0 -4 -1.5 -10.5t-10.5 -18.5q-38 -48 -82 -88t-94 -68t-107.5 -43.5t-122.5 -15.5q-86 0 -160.5 38.5t-130 102 t-87.5 144t-32 164.5z" />
<glyph unicode="d" horiz-adv-x="1166" d="M85 418q0 105 41.5 195t111 156t161.5 103.5t193 37.5q27 0 47 -5t37 -10.5t34 -10.5t38 -5q3 0 7.5 2t4.5 11v471q0 24 -13 37.5t-33 20.5t-43 11.5t-44 10.5q-6 2 -9.5 5.5t-3.5 14.5q0 5 3 10t12 10l331 156q4 2 8.5 4t6.5 2q17 0 17 -24v-1392q0 -44 22.5 -63 t67.5 -19l58 4q4 0 5 -5.5t1 -11.5q0 -2 -2.5 -5.5t-12.5 -7.5l-342 -142q-2 -1 -10 -3.5t-9 -2.5q-7 0 -8.5 8.5t-1.5 16.5v69q0 10 -7 10q-3 0 -9 -3q-35 -20 -66 -38.5t-62.5 -32.5t-66 -22t-76.5 -8q-90 0 -162 37t-122 99t-77 142t-27 167zM312 463q0 -72 16.5 -138.5 t51 -117t87.5 -80.5t125 -30q11 0 39 6t56.5 15.5t50.5 22.5t22 28v497q0 69 -49.5 112t-141.5 43q-67 0 -115.5 -31.5t-80 -82.5t-46.5 -115t-15 -129z" />
<glyph unicode="e" horiz-adv-x="1014" d="M70 405q0 117 33 215.5t95 170.5t151.5 112t203.5 40q34 0 61 -4.5t49.5 -12t42 -18t39.5 -22.5q23 -12 52.5 -43t55.5 -72t44 -87.5t18 -89.5q0 -14 -5.5 -30.5t-18.5 -16.5h-590q-10 0 -13.5 -18t-3.5 -44q0 -88 25.5 -156.5t68.5 -116t99 -72t118 -24.5q39 0 75 10.5 t69 27.5t62 38t55 42q6 2 8 2q3 0 8 -5q9 -8 18 -18.5t14 -17.5q3 -3 3 -6t-4 -7q-33 -39 -81 -76.5t-102.5 -67t-111.5 -47.5t-108 -18q-103 0 -183 37.5t-135 98.5t-83.5 138.5t-28.5 157.5zM312 655q0 -17 5 -24t13 -7h327q26 0 26 23q0 39 -12.5 73.5t-35.5 61 t-55.5 41.5t-72.5 15q-48 0 -84 -20.5t-61 -49.5t-37.5 -60t-12.5 -53z" />
<glyph unicode="f" horiz-adv-x="700" d="M40 30q0 5 3 16.5t7 13.5q13 6 37 9t48 13.5t42 33t18 66.5v579q0 11 -12 11h-109q-12 0 -23 7.5t-11 21.5q0 11 11.5 19t28.5 16t37.5 15.5t37.5 17t28.5 21.5t11.5 29v33q0 140 36 270t108.5 230t181 160t253.5 60q14 0 50 -8t74 -22t67 -33t29 -41q0 -8 -2.5 -14 t-5.5 -15q-2 -5 -10.5 -23t-17.5 -39.5t-17.5 -40.5t-10.5 -24q-2 -4 -7.5 -10t-11.5 -6q-2 0 -4.5 1.5t-12.5 9.5q-23 19 -52 42t-62 43.5t-69 34.5t-73 14q-79 0 -121.5 -23t-62.5 -60t-23.5 -82.5t-3.5 -91.5v-356q0 -6 2.5 -7t7.5 -1h195q28 0 36.5 -5.5t12.5 -20.5 q6 -23 9 -51t3 -50q0 -13 -5 -17t-21 -4h-227q-2 0 -7.5 -1t-5.5 -9v-560q0 -44 22 -71.5t57.5 -43.5t80 -21.5t88.5 -5.5q9 -1 13.5 -13t4.5 -17q0 -2 -0.5 -7t-2 -10t-5.5 -9t-10 -4h-625q-6 2 -8 13t-2 17z" />
<glyph unicode="g" horiz-adv-x="1224" d="M70 -398q0 35 14 63t37 51.5t51.5 44t57.5 42t56 45t47 53.5q-53 7 -96.5 25t-74 42t-47.5 52.5t-17 57.5q0 27 14.5 47t38 35.5t53.5 28.5t62 25q20 8 42.5 17.5t46.5 26.5q-119 48 -180 125t-61 178q0 80 36 150t99 121.5t148.5 81t184.5 29.5q96 0 172 -25t127 -73 q63 2 120.5 7t123.5 5q23 0 37.5 -1.5t22.5 -5t12 -9t6 -13.5q7 -25 10 -45t3 -41q0 -17 -12.5 -22.5t-50.5 -5.5h-183q14 -23 27.5 -54t13.5 -79q0 -69 -31 -134.5t-91 -115.5t-146.5 -80.5t-197.5 -30.5q-34 0 -55 2.5t-44 8.5q-14 -12 -35 -21.5t-41 -21.5t-34 -27.5 t-14 -39.5q0 -42 73.5 -60.5t237.5 -19.5q125 -1 227.5 -7t175.5 -31.5t113 -79t40 -149.5q0 -40 -19 -86.5t-57.5 -92.5t-96.5 -88.5t-136.5 -75t-177.5 -52t-218 -19.5q-105 0 -183 20.5t-129 54.5t-76.5 77.5t-25.5 89.5zM298 -316q0 -42 25.5 -84.5t69 -76.5 t102.5 -55.5t126 -21.5q70 0 136 23.5t117 62.5t82 90.5t31 107.5q0 33 -10.5 58t-28.5 42t-42 27t-50 12q-21 2 -70 3.5t-110 3.5q-37 1 -73 1.5t-66.5 1.5t-55 2t-38.5 3q-19 -22 -44 -41.5t-47.5 -42t-38 -50.5t-15.5 -66zM354 610q0 -53 12 -111t38.5 -107t68.5 -80.5 t102 -31.5q45 0 81 20.5t61.5 57t39.5 88t14 113.5q0 77 -16 137.5t-45.5 102t-69.5 63t-88 21.5q-29 0 -63.5 -11.5t-64.5 -42t-50 -83.5t-20 -136z" />
<glyph unicode="h" horiz-adv-x="1276" d="M30 30q0 5 3 16.5t7 13.5q13 6 37 9.5t48 14t42 33t18 66.5v1181q0 24 -13 37.5t-33 20.5t-43 11.5t-44 10.5q-6 2 -9.5 5.5t-3.5 14.5q0 5 3 10t12 10l331 155q4 2 8.5 4t6.5 2q17 0 17 -24v-847q0 -4 1 -14t6 -10q7 0 10 3.5t9 9.5q29 33 59 62.5t66 52t81 35.5t105 13 q62 0 122.5 -14.5t108 -54t77 -109t29.5 -179.5v-386q0 -44 18 -66.5t42 -33t48 -14t37 -9.5q4 -2 7 -13.5t3 -16.5q0 -6 -2 -17t-8 -13h-522q-6 2 -8 13t-2 17q0 5 3 16.5t7 13.5q13 6 37 9.5t48 14t42 33t18 66.5v344q0 58 -3 109t-20.5 89t-56 59.5t-108.5 21.5 q-36 0 -80 -17.5t-83 -47t-65 -68t-26 -80.5v-410q0 -44 18 -66.5t42 -33t48 -14t37 -9.5q4 -2 7 -13.5t3 -16.5q0 -6 -2 -17t-8 -13h-522q-6 2 -8 13t-2 17z" />
<glyph unicode="i" horiz-adv-x="652" d="M60 31q0 5 3 16t7 13q13 6 37 9.5t48 14t42 33t18 66.5v480q0 24 -13 37.5t-33 20.5t-43 11.5t-44 10.5q-6 2 -9.5 5.5t-3.5 14.5q0 5 3 10t12 10l331 156q4 2 8.5 4t6.5 2q17 0 17 -24v-738q0 -44 18 -66.5t42 -33t48 -14t37 -9.5q4 -2 7 -13t3 -16q0 -6 -2 -17.5 t-8 -13.5h-522q-6 2 -8 13.5t-2 17.5zM172 1307q0 64 38 102t102 38t102 -38t38 -102t-38 -101.5t-102 -37.5t-102 37.5t-38 101.5z" />
<glyph unicode="j" horiz-adv-x="653" d="M-247 -492q0 15 5 31t15 28.5t25 20.5t35 8q6 0 12.5 -1.5t21 -9.5t39.5 -26t68 -51q13 -11 26 -17t28 -9t34.5 -4t46.5 -1q35 0 56 24.5t32 59.5t14.5 74t3.5 68v958q0 24 -13 37.5t-33 20.5t-43 11.5t-44 10.5q-6 2 -9.5 5.5t-3.5 14.5q0 5 3 10t12 10l331 156 q4 2 8.5 4t6.5 2q17 0 17 -24v-1026q0 -126 -36 -221.5t-102 -160.5t-159.5 -98t-207.5 -33q-36 0 -70 11t-60.5 29t-42.5 41t-16 47zM156 1307q0 64 38 102t102 38t102 -38t38 -102t-38 -101.5t-102 -37.5t-102 37.5t-38 101.5z" />
<glyph unicode="k" horiz-adv-x="1278" d="M44 30q0 26 10 30q13 6 37 9.5t48 14t42 33t18 66.5v1180q0 24 -13 37.5t-33 20.5t-43 11.5t-44 10.5q-6 2 -9.5 5.5t-3.5 14.5q0 5 3 10t12 10l331 156q4 2 8.5 4t6.5 2q17 0 17 -24v-993q0 -30 11.5 -37t28.5 -7q22 0 55 13.5t70.5 34.5t75 47t67 51.5t48.5 47t19 33.5 q0 20 -19 27t-42.5 11.5t-42.5 11.5t-19 26q0 14 13 23.5t28 9.5h421q45 0 45 -23q0 -16 -23 -26.5t-57 -20.5t-71.5 -23.5t-65.5 -35.5l-287 -224q0 -8 7 -17.5t12 -14.5l381 -402q26 -27 57.5 -42t59.5 -25t46.5 -17t18.5 -19t-2 -21t-14 -9h-545q-7 0 -8.5 8t-1.5 22 q0 25 10 30t21 8t19.5 8.5t14 14.5t5.5 26q0 11 -14 29.5t-29 34.5l-279 296q0 1 -1 2h-1q-6 0 -9 -15t-3 -34v-247q0 -44 18 -66.5t42 -33t48 -14t37 -9.5q10 -4 10 -30q0 -14 -2 -22t-8 -8h-522q-10 2 -10 30z" />
<glyph unicode="l" horiz-adv-x="597" d="M20 30q0 5 3 16t7 13q13 6 37 9.5t48 14t42 33t18 66.5v1166q0 24 -13 37.5t-33 20.5t-43 11.5t-44 10.5q-13 5 -13 28q0 5 3 13.5t12 13.5l331 156q4 2 9 4t11 2q8 0 10 -5.5t2 -18.5v-1439q0 -44 18 -66.5t42 -33t48 -14t37 -9.5q4 -2 7 -13t3 -16q0 -6 -2 -17t-8 -13 h-522q-6 2 -8 13t-2 17z" />
<glyph unicode="m" horiz-adv-x="1884" d="M42 31q0 5 3 16t7 13q13 6 37 9.5t48 14t42 33t18 67.5v509q0 24 -13 37.5t-33 20.5t-43 11.5t-44 10.5q-6 2 -9.5 5.5t-3.5 14.5q0 5 3 10t12 10l331 157q4 2 8.5 4t6.5 2q17 0 17 -24v-166q1 -6 8 -6q6 0 14 4q45 24 88 49.5t86.5 46.5t87.5 34t89 13t76 -11t52 -28.5 t34.5 -38t23.5 -39.5q1 -3 4 -7.5t7.5 -9.5t9 -8.5t9.5 -3.5q14 1 29 9q97 49 158.5 76.5t103 41t70 16.5t58.5 3q59 0 101.5 -21t71.5 -55.5t46.5 -79t26.5 -91t12 -92t3 -82.5q0 -35 -2 -65t-3 -65.5t-2.5 -80.5t-1.5 -109q0 -30 11 -50t28.5 -33t38.5 -19.5t41 -10.5 t36.5 -6.5t25.5 -6.5q4 -2 7 -13t3 -16q0 -6 -2 -17.5t-8 -13.5h-558q-6 2 -8 13.5t-2 17.5q0 5 3 16t7 13q13 6 37 9.5t48 15t41.5 35.5t17.5 72v2q5 31 6.5 68.5t1.5 82.5q0 22 -0.5 41.5t-0.5 40t-0.5 44.5t-0.5 55q0 49 -4.5 98t-22 88t-51.5 63.5t-94 24.5 q-10 0 -22 -2.5t-33 -10t-56 -22.5t-92 -39q-8 -5 -16.5 -11.5t-9.5 -16.5v-512q0 -45 18 -68.5t42 -34t48 -14t37 -9.5q4 -2 7 -13t3 -16q0 -6 -2 -17.5t-8 -13.5h-522q-6 2 -8 13.5t-2 17.5q0 5 3 16t7 13q13 6 37 9.5t48 14t42 34t18 68.5v436q0 39 -6 71.5t-23 56 t-47.5 36.5t-79.5 13q-23 0 -58 -12.5t-71.5 -31.5t-68 -40t-46.5 -39v-490q0 -45 18 -68.5t42 -34t48 -14t37 -9.5q4 -2 7 -13t3 -16q0 -6 -2 -17.5t-8 -13.5h-522q-6 2 -8 13.5t-2 17.5z" />
<glyph unicode="n" horiz-adv-x="1316" d="M52 31q0 5 3 16t7 13q13 6 37 9.5t48 14t42 34t18 68.5v508q0 24 -13 37.5t-33 20.5t-43 11.5t-44 10.5q-6 2 -9.5 5.5t-3.5 14.5q0 5 3 10t12 10l331 156q4 2 8.5 4t6.5 2q17 0 17 -24v-156q3 -10 8 -10t8 0.5t8 3.5q64 33 108.5 55.5t77 38t58 24t51.5 13t57 5.5t76 1 q49 0 85 -21t60.5 -55.5t40 -79t23.5 -91t11 -92t3 -82.5q0 -35 -1.5 -65t-3 -65.5t-3 -80.5t-0.5 -109q0 -30 10.5 -50t28 -33t38.5 -19.5t41 -10.5t36.5 -6.5t25.5 -6.5q4 -2 7 -13t3 -16q0 -6 -2 -17.5t-8 -13.5h-558q-6 2 -8 13.5t-2 17.5q0 5 3 16t7 13q13 6 34.5 9.5 t44 15.5t41 36.5t24.5 72.5q2 15 3.5 28t2.5 26.5t1.5 29.5t0.5 37q0 45 -1 96t-1 114q0 49 -4.5 97t-22 86t-51.5 62t-94 24q-21 0 -37.5 -2.5t-40 -11.5t-61.5 -27t-102 -49q-8 -5 -16.5 -11.5t-9.5 -16.5v-490q0 -45 18 -68.5t42 -34t48 -14t37 -9.5q4 -2 7 -13t3 -16 q0 -6 -2 -17.5t-8 -13.5h-522q-6 2 -8 13.5t-2 17.5z" />
<glyph unicode="o" horiz-adv-x="1197" d="M75 467q0 94 41.5 180t111.5 152t163 105t196 39q108 0 205 -37t170.5 -101.5t116.5 -152t43 -189.5q0 -104 -39.5 -193.5t-109.5 -155.5t-166.5 -103.5t-210.5 -37.5q-113 0 -208.5 38.5t-165 105t-108.5 156.5t-39 194zM331 530q0 -54 8 -111.5t24 -112t40.5 -102.5 t58.5 -84.5t77 -57.5t97 -21q59 0 101.5 30.5t70 79.5t40.5 110t13 122q0 49 -9 103.5t-27 108t-44 102.5t-60.5 86.5t-77 59.5t-92.5 22q-56 0 -97.5 -30.5t-68.5 -79t-40.5 -108t-13.5 -117.5z" />
<glyph unicode="p" horiz-adv-x="1166" d="M12 -584q0 9 10 13q13 6 37 9.5t48 14t42 33t18 66.5v1142q0 24 -13 37.5t-33 20.5t-43 11.5t-44 10.5q-6 2 -9.5 5.5t-3.5 14.5q0 5 3 10t12 10l331 156q4 2 8.5 4t6.5 2q17 0 17 -24v-106q0 -5 4.5 -8t7.5 -3q5 0 9.5 2.5t8.5 4.5q40 24 72 40.5t61 26t60 13.5t70 4 q85 0 152.5 -40.5t114.5 -106t72 -147.5t25 -165q0 -61 -17 -122t-47 -115.5t-72 -101.5t-92.5 -81.5t-108 -54t-118.5 -19.5q-45 0 -87.5 6t-93.5 17q-17 0 -18.5 -12t-2.5 -25v-407q0 -29 12.5 -48.5t32 -32t43 -19t45.5 -10.5t40 -6.5t27 -6.5q10 -4 10 -13 q0 -14 -10 -16h-577q-10 2 -10 16zM399 201q0 -3 1 -16.5t3 -24.5q3 -21 26 -38.5t52.5 -30t59 -19t47.5 -6.5q66 0 111.5 24t73.5 64.5t40.5 94.5t12.5 115q0 47 -5 98.5t-15.5 101.5t-28 95t-42 79t-57.5 54.5t-75 20.5q-54 0 -98.5 -15t-90.5 -49q-2 -1 -4 -3l-5 -5 l-6 -6v-534z" />
<glyph unicode="q" horiz-adv-x="1172" d="M100 428q0 116 43.5 211.5t116 163t166 104.5t193.5 37q66 0 125 -16.5t116 -47.5h7q13 0 32 11t38 24.5t34.5 25t21.5 11.5h10q2 0 4 -0.5t2 -5.5v-1394q0 -44 18 -66.5t42 -33t48 -14t37 -9.5q10 -4 10 -13q0 -14 -10 -16h-612q-10 2 -10 16q0 9 10 13q9 4 29.5 6.5 t46.5 6.5t54 10.5t51.5 19t38.5 31.5t15 49v518q0 5 -1 5.5t-3 0.5q-5 0 -18 -8q-53 -30 -87.5 -48.5t-63.5 -29t-58 -14t-71 -3.5q-77 0 -145 37t-119 100t-81 145.5t-30 172.5zM327 415q0 -75 24.5 -134.5t62.5 -101t84.5 -63.5t91.5 -22q66 0 131 28q21 9 38.5 28 t17.5 32v444q0 127 -53 184t-144 57q-49 0 -94.5 -33t-81 -92.5t-56.5 -143t-21 -183.5z" />
<glyph unicode="r" horiz-adv-x="823" d="M52 31q0 24 10 28q13 6 37 9.5t48 14t42 33t18 66.5v481q0 24 -13 37.5t-33 20.5t-43 11.5t-44 10.5q-6 2 -9.5 5.5t-3.5 14.5q0 5 3 10t12 10l331 156q4 2 8.5 4t6.5 2q17 0 17 -24v-170q0 -3 0.5 -7.5t5.5 -4.5t8 3.5t6 6.5q18 24 40.5 53.5t48 55.5t52.5 43.5t53 17.5 q18 0 47 -10t56.5 -23.5t47 -28t19.5 -23.5t-9 -33.5t-22.5 -49.5t-29 -44.5t-28.5 -19.5h-2q-18 6 -36.5 14.5t-37.5 17t-38.5 14t-39.5 5.5q-30 0 -56 -12.5t-44.5 -32t-29.5 -43.5t-11 -46v-422q0 -29 12.5 -48.5t32 -32t43 -19t45.5 -10.5t40 -6.5t27 -6.5q10 -4 10 -28 q0 -29 -10 -31h-577q-10 2 -10 31z" />
<glyph unicode="s" horiz-adv-x="758" d="M65 692q0 48 30 93.5t78 80.5t107.5 56t118.5 21q31 0 62.5 -5.5t58 -12.5t45 -14t23.5 -10q7 -5 11.5 -15.5t6 -33.5t2 -61.5t0.5 -100.5q0 -17 -12.5 -24.5t-24.5 -7.5q-11 0 -21.5 4t-13.5 13q-12 31 -27 62.5t-34.5 57t-45.5 41t-60 15.5q-20 0 -40 -5t-36 -19.5 t-25.5 -39.5t-9.5 -64q0 -34 31.5 -63t78.5 -58.5t102.5 -63.5t102.5 -78t78.5 -101.5t31.5 -135.5q0 -58 -30 -104.5t-77 -78.5t-104.5 -49.5t-112.5 -17.5q-28 0 -56 5t-51 11.5t-38 11.5t-17 5q-9 0 -16 -5t-13.5 -11.5t-12.5 -11.5t-14 -5h-36q-2 0 -6 29t-8.5 69.5 t-7.5 84t-3 72.5q0 16 11.5 20.5t24.5 4.5q7 0 15.5 -5t16 -12.5t13.5 -15.5t9 -14q17 -37 34 -67t39 -51t52 -32.5t72 -11.5q32 0 52 11t31 29t14.5 41t3.5 48q0 50 -30 84.5t-74.5 64.5t-97 61t-97 72t-74.5 97.5t-30 139.5z" />
<glyph unicode="t" horiz-adv-x="723" d="M45 793q0 5 2 11t5 8q20 13 43.5 30.5t46.5 36.5t45 38t39 35q10 11 27.5 33t40 43.5t48.5 38t53 16.5q6 0 14 -4t8 -10q0 -7 -3.5 -21.5t-8.5 -32.5t-11 -38t-11 -39q0 -8 2.5 -13t13.5 -6h255q16 0 22 -5.5t9 -14.5q2 -5 4 -20.5t4 -34t3.5 -37t1.5 -30.5q0 -6 -8 -6 h-301q-5 0 -5.5 -2t-0.5 -7v-497q0 -32 8 -56t20.5 -40t28.5 -24t32 -8q46 0 75 13.5t50 29.5t37 29.5t36 13.5q14 0 16.5 -11t2.5 -17q0 -13 -3.5 -20.5t-5.5 -11.5q-1 -2 -11 -17t-27 -36t-41.5 -45t-54.5 -44.5t-65.5 -34t-74.5 -13.5q-54 0 -101 20t-81 53.5t-53.5 76.5 t-19.5 89v559h-75q-14 0 -22 7t-9 15z" />
<glyph unicode="u" horiz-adv-x="1200" d="M40 828q0 8 2.5 14t13.5 8l305 89q6 2 12.5 3t12.5 1q10 0 10 -17v-675q0 -34 15.5 -61.5t40.5 -46.5t57 -29t66 -10q24 0 50 8t50 20.5t45 29t34 34.5v535q-3 29 -26.5 49.5t-50.5 26.5q-7 2 -15.5 2.5t-15.5 2t-11.5 5t-4.5 12.5q0 8 2.5 14t13.5 9l305 87q6 2 12.5 3 t12.5 1q10 0 10 -9v-690q5 -44 25 -63t65 -19l58 4q4 0 5 -13.5t1 -19.5q0 -2 -2.5 -13t-12.5 -16l-304 -125q-2 -1 -10 -3.5t-9 -2.5q-7 0 -8.5 8.5t-1.5 16.5v96q-3 4 -10 4h-4q-2 0 -2 -2l-160 -78q-22 -8 -41 -15.5t-37.5 -14.5t-39.5 -11t-46 -4q-42 0 -92.5 8.5 t-94 27t-72.5 47.5t-29 70v604q-3 29 -26.5 49.5t-50.5 26.5q-7 2 -15.5 2.5t-15.5 2t-11.5 5t-4.5 12.5z" />
<glyph unicode="v" horiz-adv-x="1130" d="M0 898q0 10 5 18.5t17 8.5h526q6 0 8 -10.5t2 -13.5q0 -14 -11 -18.5t-28 -5.5t-36 -0.5t-36 -4.5t-28 -17.5t-11 -38.5q0 -3 3 -12.5t3 -11.5l199 -544q2 -5 6.5 -14.5t12.5 -9.5q4 0 8.5 4.5t7.5 10.5t5 11.5t3 7.5q47 120 79 202.5t53 137.5t32.5 86.5t16.5 48.5 t6 24.5t1 14.5q0 35 -22 57.5t-54 34.5q-9 2 -22.5 2t-26 2t-22 8t-9.5 20q0 8 8 16t16 8h399q6 -1 7.5 -7.5t1.5 -17.5q0 -7 -2 -10.5t-9.5 -6t-21 -4.5t-35.5 -6t-38.5 -20.5t-30 -38.5t-23.5 -45.5t-19 -42.5q-68 -174 -114.5 -295t-77.5 -201t-48.5 -124.5t-26.5 -66.5 t-11 -27l-2 -5q-3 -7 -8.5 -18t-13.5 -11h-160q-8 0 -13.5 11.5t-8.5 19.5l-271 735q-17 46 -49 80.5t-78 49.5q-7 2 -17 3t-19.5 3t-16 7t-6.5 16z" />
<glyph unicode="w" horiz-adv-x="1723" d="M8 890q0 10 6 20t18 10h525q6 0 7 -12t1 -15q0 -14 -11 -19.5t-27 -7t-35 -3t-35 -7t-27 -19t-11 -39.5q0 -3 1 -12.5t1 -11.5l193 -525q2 -5 6.5 -14.5t12.5 -9.5q4 0 8.5 4.5t7.5 10.5t5 11.5t3 7.5l174 462q-17 46 -49 80.5t-78 49.5q-7 2 -17 4.5t-19.5 6.5t-16 10.5 t-6.5 17.5q0 10 6 20t18 10h526q6 0 7 -12t1 -15q0 -14 -11 -19.5t-27 -7t-35 -3t-35 -7t-27 -19t-11 -39.5q0 -3 1 -12.5t1 -11.5l164 -446q2 -5 6.5 -14.5t12.5 -9.5q4 0 8.5 4.5t8 10.5t5.5 11.5t3 7.5l149 391q4 11 4 24q0 24 -10.5 42.5t-26.5 31t-33.5 18.5t-31.5 6 q-20 0 -39.5 10t-19.5 32q0 8 7 17.5t15 9.5h401q8 -2 9.5 -12.5t1.5 -15.5q0 -7 -2 -12t-9.5 -9.5t-21 -8t-35.5 -7.5t-38.5 -20.5t-30 -38.5t-23.5 -45.5t-19 -42.5q-67 -175 -113.5 -295t-77 -198t-47 -121t-24.5 -63q-8 -21 -10 -25l-1 -4q-3 -7 -8 -18t-13 -11h-102 q-8 0 -13.5 11.5t-8.5 19.5l-217 586l-227 -588q-3 -7 -8.5 -18t-13.5 -11h-149q-8 0 -13.5 11.5t-8.5 19.5l-265 717q-17 46 -49 80.5t-78 49.5q-7 2 -17 4.5t-19.5 6.5t-16 10.5t-6.5 17.5z" />
<glyph unicode="x" horiz-adv-x="1111" d="M17 900q2 20 24 20h450q6 0 7 -7t1 -10q-1 -8 -16 -11.5t-33 -9t-33 -16.5t-15 -33q0 -9 2 -18t7 -14l131 -161q8 -9 16.5 -19.5t16.5 -10.5q5 0 13 10l117 140q13 15 19 26.5t6 30.5q0 30 -16 41.5t-35.5 17t-35.5 10.5t-16 22q0 4 1.5 8t9.5 4h333q6 0 7 -2.5t1 -14.5 q0 -4 -1 -10t-7 -9q-29 -8 -50 -17.5t-39 -22.5t-34.5 -30.5t-36.5 -41.5l-183 -218q-3 -5 -3.5 -7.5t-0.5 -8.5l360 -447q10 -13 27.5 -20.5t34 -14.5t28.5 -15.5t12 -22.5q0 -9 -2 -12t-10 -6h-465q-8 0 -9 8t-1 11q0 13 16.5 15t37 5.5t37 12.5t16.5 36q0 14 -8.5 25 t-16.5 20l-172 202q-8 11 -12.5 17t-18.5 6q-12 0 -19.5 -10.5t-15.5 -18.5l-147 -175q-13 -15 -17 -30.5t-4 -24.5q0 -18 13.5 -31.5t32.5 -22t38 -12.5t31 -4q4 0 5.5 -5t1.5 -10t-1.5 -9.5t-5.5 -4.5h-341q-11 0 -13.5 4.5t-2.5 13.5t16 19t36.5 19.5t41 20t29.5 21.5 l275 333l-326 410q-8 9 -22.5 16.5t-29.5 14t-25.5 13.5t-10.5 15z" />
<glyph unicode="y" horiz-adv-x="1165" d="M-25 890q0 10 6 20t18 10h528q6 0 7 -12t1 -15q0 -14 -11.5 -19.5t-28.5 -7.5t-36.5 -3t-36.5 -7t-28.5 -19t-11.5 -39q0 -3 4.5 -12.5t4.5 -11.5l248 -531q2 -5 7.5 -14.5t12.5 -9.5q4 0 8 4.5t7 10.5t5 11.5t3 7.5q46 118 77.5 200t52 136t31 84.5t15 47t5.5 24t1 14.5 q2 35 -21 58t-55 34q-9 3 -22.5 4.5t-26 5t-22 11t-9.5 21.5q0 8 7 17.5t15 9.5h399q8 0 9.5 -11.5t1.5 -16.5q0 -7 -2 -12t-9.5 -9t-21 -8t-35.5 -8q-21 -4 -38 -20.5t-30.5 -38t-24 -45.5t-18.5 -43l-507 -1256q-8 -19 -23 -32.5t-33 -22.5t-36 -13t-31 -4q-18 0 -35 6 t-31 17t-22.5 25.5t-8.5 32.5q0 28 14.5 43t35.5 25t44 17t39 19q11 8 23.5 18.5t22.5 33.5l131 305l-383 799q-17 46 -49 80.5t-78 49.5q-7 2 -17 4.5t-19.5 6.5t-16 10.5t-6.5 17.5z" />
<glyph unicode="z" horiz-adv-x="1000" d="M62 20q0 8 0.5 12t5.5 13l493 671q10 14 17.5 24t7.5 25q1 3 -13 4.5t-35 2.5t-44 1.5t-39 0.5h-165q-34 0 -57 -15t-39.5 -37.5t-27.5 -49t-20 -49t-17.5 -37.5t-20.5 -15q-3 0 -14 0.5t-11 3.5l60 353q2 9 15 10.5t21 1.5q7 0 13.5 -7t14 -15.5t16.5 -15.5t22 -7 q15 0 39.5 -1.5t62 -3t90.5 -2.5t127 -1q30 0 70.5 0.5t87 1.5t96.5 2t98 2q6 -2 8 -9t2 -14q0 -2 -5 -16.5t-11 -19.5l-506 -688q-4 -6 -7.5 -11t-3.5 -12q0 -5 0.5 -6.5t5.5 -1.5h345q27 0 48.5 11.5t40 29.5t33.5 38t29 38t26.5 29.5t25.5 11.5q6 0 17.5 -3t11.5 -9 l-83 -215q-2 -4 -5 -12t-7.5 -15.5t-11 -13t-14.5 -5.5h-771q-22 0 -22 20z" />
<glyph unicode="{" horiz-adv-x="1134" d="M206 702q0 29 19.5 45.5t47.5 16.5q54 0 85 33.5t31 111.5q0 58 -12.5 115t-27.5 113.5t-27.5 114t-12.5 116.5q0 69 24.5 123.5t66.5 95t96.5 69t115 46t122 25.5t117.5 8q40 0 57.5 -12t17.5 -37q0 -18 -5.5 -29.5t-15.5 -17.5t-22.5 -8.5t-27.5 -3.5 q-60 -3 -113.5 -17.5t-93.5 -44t-63.5 -75t-23.5 -110.5q0 -59 4.5 -116.5t15.5 -124.5q7 -45 12 -87.5t5 -86.5q0 -32 -7 -60.5t-18 -52.5t-24 -43t-25 -31q-8 -8 -19 -17.5t-20.5 -19.5t-16.5 -20t-7 -19t8 -20.5t19 -23.5t22 -22.5t17 -16.5q11 -13 23.5 -32t23 -42.5 t17.5 -51.5t7 -59q0 -32 -5.5 -78.5t-15.5 -112.5q-8 -54 -12 -111t-4 -107q0 -57 14.5 -100.5t39 -76t56 -54.5t66.5 -35.5t70 -19t66 -5.5q35 0 44 -15t9 -43q0 -24 -13.5 -37.5t-39.5 -13.5q-48 0 -108.5 6.5t-123 22.5t-122.5 44t-106.5 70.5t-75 101.5t-28.5 138 q0 55 12.5 111.5t27.5 112.5t27.5 111.5t12.5 109.5q0 38 -6.5 72t-21 59.5t-37.5 41.5t-57 19q-26 6 -43.5 21.5t-17.5 35.5z" />
<glyph unicode="|" horiz-adv-x="491" d="M150 -35v1680h191v-1680h-191z" />
<glyph unicode="}" horiz-adv-x="1134" d="M208 -324q0 28 9 43t44 15q46 0 101 13.5t101.5 46.5t78 89t31.5 142q0 50 -4 107t-12 111q-9 65 -15 113t-6 78q0 31 6.5 59t17 51.5t22.5 42.5t23 31q6 7 17.5 17.5t23 22t19.5 23.5t8 21q0 8 -7 18t-17 20.5t-20 20t-17 16.5q-12 13 -25.5 32t-24.5 43t-18.5 52.5 t-7.5 60.5q0 44 5 86.5t12 87.5q11 67 15.5 124.5t4.5 116.5q0 65 -25.5 111.5t-67.5 76.5t-96 44t-111 14q-36 0 -50.5 16t-14.5 44q0 25 12.5 37t52.5 12q63 0 128.5 -8t127 -25.5t115.5 -46t94 -69t63.5 -95t23.5 -123.5q0 -59 -12.5 -116.5t-27.5 -114t-27.5 -113.5 t-12.5 -115q0 -23 5.5 -45.5t19.5 -41.5t38 -34t61 -24q24 -3 41.5 -19.5t17.5 -42.5q0 -20 -17.5 -35.5t-43.5 -21.5q-34 -3 -57 -19t-37.5 -41.5t-21 -59.5t-6.5 -72q0 -54 12.5 -109.5t27.5 -111.5t27.5 -112.5t12.5 -111.5q0 -79 -28.5 -138t-75 -101.5t-106.5 -70.5 t-122.5 -44t-123 -22.5t-108.5 -6.5q-26 0 -39.5 13.5t-13.5 37.5z" />
<glyph unicode="~" horiz-adv-x="1109" d="M90 440q0 89 20.5 158.5t55.5 117.5t80.5 73.5t96.5 25.5q28 0 58 -5.5t67.5 -21t85 -43t109.5 -70.5q23 -16 48 -30t48 -14q16 0 30.5 9.5t25.5 31t18 56t7 83.5h178q0 -89 -20.5 -158.5t-55.5 -117.5t-80.5 -73.5t-96.5 -25.5q-57 0 -106 23t-97 56q-44 30 -76.5 50.5 t-56.5 32.5t-43 17t-36 5q-13 0 -27 -8.5t-26 -29t-19.5 -55t-8.5 -87.5h-179z" />
<glyph unicode="&#xa2;" horiz-adv-x="988" d="M90 423q1 139 40 235.5t106 158t155.5 91t187.5 34.5l63 178h150l-65 -184q33 -5 65.5 -13.5t59 -24t42.5 -38t16 -55.5q0 -24 -9 -38.5t-25 -23t-37 -11.5t-45 -3q-22 0 -39 5.5t-30.5 15t-25 21.5t-22.5 25l-225 -634q31 -22 70.5 -33.5t89.5 -11.5q28 0 55.5 9 t53 24.5t48 35.5t41.5 43q10 12 19.5 20t29.5 8q24 0 41.5 -12.5t17.5 -26.5q0 -4 -1.5 -10.5t-10.5 -18.5q-38 -48 -82 -88t-94 -68t-107.5 -43.5t-122.5 -15.5q-57 0 -109 18l-124 -351h-149l148 419q-40 32 -72.5 73.5t-55.5 88.5t-35.5 98t-12.5 103zM332 485 q0 -49 5.5 -93.5t16.5 -82.5l193 544q-66 -4 -107.5 -40.5t-65.5 -90t-33 -117t-9 -120.5z" />
<glyph unicode="&#xa3;" horiz-adv-x="1110" d="M116 144q0 44 20 80.5t54 63t77 41t90 14.5q42 0 72.5 -7t51.5 -15v5q0 40 -7.5 79.5t-19.5 77t-27 73t-31 67.5h-184q-26 0 -42.5 8.5t-16.5 22.5v24q0 14 16.5 23t42.5 9h139q-19 37 -36.5 75t-31 77t-21.5 79.5t-8 83.5q0 81 30.5 151t82.5 122t121 81.5t145 29.5 t146.5 -19.5t125 -53t87.5 -78.5t33 -96q0 -14 -6 -29t-18 -27.5t-29 -20.5t-39 -8q-27 0 -46.5 7.5t-34.5 22t-28 35t-27 46.5q-19 34 -37.5 60t-40 43t-47.5 26t-60 9q-30 0 -60 -13.5t-54 -36.5t-39 -55t-15 -68q0 -54 9.5 -100t25 -88t35 -80t39.5 -75 q14 -27 26.5 -49.5t25.5 -50.5h161q26 0 42.5 -9t16.5 -23v-24q0 -14 -16.5 -22.5t-42.5 -8.5h-126q12 -37 18.5 -73.5t6.5 -76.5q0 -24 -2 -53.5t-6.5 -60.5t-11 -61t-15.5 -57q21 -20 46 -39.5t51 -34.5t52 -24.5t50 -9.5q38 0 66.5 24t48 54t29.5 57t10 33h91 q-2 -26 -9 -61t-21.5 -71.5t-38 -71.5t-58.5 -62.5t-83 -44.5t-111 -17q-37 0 -69.5 11t-60 27.5t-49.5 35t-37 34.5q-18 -20 -41 -39.5t-50.5 -34.5t-59 -24.5t-66.5 -9.5q-53 0 -91.5 14t-63.5 38t-37 55t-12 64zM235 140q0 -17 5 -33.5t15 -29.5t23.5 -21t30.5 -8 q27 0 50.5 15.5t42 37t31 44t18.5 36.5q-10 12 -23 25.5t-28.5 24.5t-34.5 18.5t-40 7.5q-18 0 -34.5 -9.5t-28.5 -25.5t-19.5 -37t-7.5 -45z" />
<glyph unicode="&#xa5;" horiz-adv-x="1634" d="M4 1382q0 2 0.5 7t2 9.5t4.5 8t8 3.5h679q11 0 14 -10t3 -18q0 -10 -1.5 -21t-11.5 -11q-27 -2 -51 -4t-41 -9.5t-27 -22.5t-10 -42q0 -24 12 -43l305 -490q11 -17 14.5 -21t11.5 -4q7 0 12.5 8t13.5 21l241 409q14 23 28.5 51t14.5 57q0 28 -7.5 44.5t-22.5 25.5 t-36.5 13t-49.5 7q-11 1 -13 12t-2 20q0 7 2.5 17.5t14.5 10.5h503q8 0 11 -11.5t3 -16.5q0 -10 -6.5 -17t-16 -11.5t-20 -7t-19.5 -4.5q-50 -11 -86.5 -36.5t-71.5 -63.5q-5 -5 -14.5 -16t-10.5 -13l-333 -572h345q10 0 15.5 -7.5t5.5 -17.5v-76q0 -11 -6 -18t-15 -7h-399 v-115h402q8 -2 13 -8.5t5 -16.5v-76q0 -11 -6 -18t-15 -7h-399v-79q0 -60 31 -93t110 -41q11 -1 28 -1h29q5 0 6.5 -3t1.5 -5v-44q0 -2 -1.5 -5t-6.5 -3h-681q-5 0 -6.5 3t-1.5 5v44q0 2 1.5 5t6.5 3h28q18 0 29 1q79 8 110 41t31 93v79h-428q-21 0 -21 25v76q0 25 21 25 h428v94q0 6 -3 10l-7 11h-418q-21 0 -21 25v76q0 25 21 25h339l-323 517q-17 27 -36.5 54.5t-43 52t-51 43t-59.5 26.5q-5 1 -16 3.5t-23 4.5t-23 4t-16 3q-10 1 -19 12.5t-9 20.5z" />
<glyph unicode="&#xa9;" horiz-adv-x="1717" d="M90 723q0 105 27 202t77 182t119 154t154 119t182 77t202 27t202 -27t182 -77t154 -119t119 -154t77 -182t27 -202t-27 -202t-77 -182t-119 -154t-154 -119t-182 -77t-202 -27t-202 27t-182 77t-154 119t-119 154t-77 182t-27 202zM226 723q0 -86 22.5 -166t63 -149.5 t97.5 -126.5t126.5 -97.5t149.5 -63t166 -22.5t166 22.5t149.5 63t126.5 97.5t97.5 126.5t63 149.5t22.5 166t-22.5 166t-63 149.5t-97.5 126.5t-126.5 97.5t-149.5 63t-166 22.5t-166 -22.5t-149.5 -63t-126.5 -97.5t-97.5 -126.5t-63 -149.5t-22.5 -166zM368 711 q0 73 17 137.5t47.5 119t73.5 98t95.5 74t112.5 46.5t125 16q56 0 107 -10.5t106 -24.5q9 -3 19 -7t18.5 -7.5t15.5 -6t11 -2.5q1 0 8 2.5t10 2.5h28q7 0 7 -11v-212q0 -4 -3 -5.5t-12 -1.5q-1 0 -8.5 0.5t-9.5 3.5q-1 2 -4.5 8t-7.5 12t-7 11.5t-4 7.5q-23 49 -50 82.5 t-59.5 54.5t-71 30.5t-83.5 9.5q-57 0 -101 -14.5t-77 -40.5t-55.5 -62.5t-36.5 -79.5t-20.5 -92.5t-6.5 -101.5q0 -55 7.5 -109t23.5 -103.5t41.5 -91.5t61.5 -72.5t84 -48.5t108 -18q51 0 95.5 17t81 45t65 65t48.5 77q1 3 2.5 3.5t4.5 0.5h31q2 0 4 -1.5t2 -6.5 q0 -2 -2.5 -10.5t-5.5 -14.5l-83 -197q-1 -2 -3.5 -3.5t-4.5 -1.5q-14 0 -20 2.5t-12 2.5q-18 0 -47.5 -6.5t-64 -14.5t-69.5 -15t-63 -7q-63 0 -122.5 15t-111.5 43.5t-95 70t-74.5 93.5t-48.5 114.5t-17 134.5z" />
<glyph unicode="&#xad;" horiz-adv-x="973" d="M85 411v197h803v-197h-803z" />
<glyph unicode="&#xae;" horiz-adv-x="1702" d="M90 723q0 105 27 202t77 182t119 154t154 119t182 77t202 27t202 -27t182 -77t154 -119t119 -154t77 -182t27 -202t-27 -202t-77 -182t-119 -154t-154 -119t-182 -77t-202 -27t-202 27t-182 77t-154 119t-119 154t-77 182t-27 202zM226 723q0 -86 22.5 -166t63 -149.5 t97.5 -126.5t126.5 -97.5t149.5 -63t166 -22.5t166 22.5t149.5 63t126.5 97.5t97.5 126.5t63 149.5t22.5 166t-22.5 166t-63 149.5t-97.5 126.5t-126.5 97.5t-149.5 63t-166 22.5t-166 -22.5t-149.5 -63t-126.5 -97.5t-97.5 -126.5t-63 -149.5t-22.5 -166zM413 1120v26 q0 1 0.5 2.5t4.5 2.5h2q3 0 9.5 0.5t19 0.5t35.5 1q33 0 70.5 1.5t76 2.5t76 2t70.5 1h60q47 0 96.5 -16t89.5 -47.5t65.5 -78.5t25.5 -108q0 -40 -11 -71t-30 -54.5t-45 -41.5t-57 -32l182 -288q24 -37 55 -67.5t72 -42.5q5 -1 6 -3t1 -5q0 -9 -5 -12t-15 -3q-25 0 -57 3.5 t-64.5 11t-61.5 19.5t-49 30q-19 16 -39 42t-40 55.5t-39.5 62t-38 63t-35 57t-30.5 44.5l-93 7h-5q-4 0 -6 -1q-2 -2 -2.5 -3t-0.5 -5v-255q0 -16 4 -28t14 -21t26 -14.5t39 -8.5q3 0 10 -1.5t15 -3t16 -2.5t13 -1q4 0 4.5 -2t0.5 -3v-26q0 -1 -1 -3t-4 -2h-423 q-3 0 -4 8.5t-1 15.5v7q0 1 1 3t4 2q4 0 11.5 1t16 2.5t16 3t10.5 1.5q34 8 47.5 26t13.5 44v610q0 30 -12.5 47t-29 26t-32 11t-20.5 2h-23q-3 0 -4 2t-1 3zM706 763l1 -18q1 -5 3 -9t8 -4q6 -1 16.5 -2.5t30.5 -1.5q52 0 86.5 16t54 43.5t27 63t7.5 73.5q0 40 -12.5 76 t-35 62.5t-54 42t-69.5 15.5h-13q-5 0 -9.5 -0.5t-10 -0.5t-15.5 -1q-4 0 -9.5 -1.5t-5.5 -8.5v-345z" />
<glyph unicode="&#xb4;" horiz-adv-x="740" d="M168 1102q0 6 3 10t5 8l213 295q22 30 45 43.5t46 13.5q19 0 36 -7.5t29.5 -20.5t19.5 -30t7 -36q0 -37 -20 -64t-43 -46l-270 -218q-6 -5 -8.5 -5.5t-9.5 -0.5q-9 0 -13.5 2.5t-9.5 8.5l-22 29q-3 4 -5.5 8t-2.5 10z" />
<glyph unicode="&#x2000;" horiz-adv-x="867" />
<glyph unicode="&#x2001;" horiz-adv-x="1735" />
<glyph unicode="&#x2002;" horiz-adv-x="867" />
<glyph unicode="&#x2003;" horiz-adv-x="1735" />
<glyph unicode="&#x2004;" horiz-adv-x="578" />
<glyph unicode="&#x2005;" horiz-adv-x="433" />
<glyph unicode="&#x2006;" horiz-adv-x="289" />
<glyph unicode="&#x2007;" horiz-adv-x="289" />
<glyph unicode="&#x2008;" horiz-adv-x="216" />
<glyph unicode="&#x2009;" horiz-adv-x="347" />
<glyph unicode="&#x200a;" horiz-adv-x="96" />
<glyph unicode="&#x2010;" horiz-adv-x="973" d="M85 411v197h803v-197h-803z" />
<glyph unicode="&#x2011;" horiz-adv-x="973" d="M85 411v197h803v-197h-803z" />
<glyph unicode="&#x2012;" horiz-adv-x="973" d="M85 411v197h803v-197h-803z" />
<glyph unicode="&#x2013;" horiz-adv-x="1135" d="M43 393v225h1049v-225h-1049z" />
<glyph unicode="&#x2014;" horiz-adv-x="1769" d="M28 393v225h1713v-225h-1713z" />
<glyph unicode="&#x2018;" horiz-adv-x="533" d="M45 1021q0 54 16.5 106t44.5 98t64 84.5t74 67.5q15 11 34.5 22t36.5 11q20 0 25 -13t5 -24q-1 -13 -8.5 -24t-18.5 -20t-22.5 -17.5t-20.5 -16.5q-14 -14 -29 -31t-27 -36t-20 -39t-8 -40q0 -8 2.5 -17t19.5 -9q32 0 65.5 -10t61.5 -30t45.5 -49.5t17.5 -68.5 q0 -38 -12 -67.5t-34 -49.5t-51.5 -30.5t-65.5 -10.5q-62 0 -100.5 23.5t-59.5 57t-28 70t-7 63.5z" />
<glyph unicode="&#x2019;" horiz-adv-x="533" d="M130 1252q0 38 12 67.5t34 49.5t51.5 30.5t65.5 10.5q62 0 100.5 -23.5t59.5 -57t28 -70t7 -63.5q0 -54 -17 -106t-44.5 -98t-63.5 -85t-74 -67q-15 -11 -34.5 -22t-36.5 -11q-20 0 -25 13t-5 24q1 13 8.5 24t18.5 20t22.5 17.5t20.5 16.5q14 14 29 31t27 36t20 39t8 40 q0 8 -2.5 17t-19.5 9q-32 0 -65.5 10t-61.5 30t-45.5 49.5t-17.5 68.5z" />
<glyph unicode="&#x201c;" horiz-adv-x="972" d="M45 1021q0 54 16.5 106t44.5 98t64 84.5t74 67.5q15 11 34.5 22t36.5 11q20 0 25 -13t5 -24q-1 -13 -8.5 -24t-18.5 -20t-22.5 -17.5t-20.5 -16.5q-14 -14 -29 -31t-27 -36t-20 -39t-8 -40q0 -8 2.5 -17t19.5 -9q32 0 65.5 -10t61.5 -30t45.5 -49.5t17.5 -68.5 q0 -38 -12 -67.5t-34 -49.5t-51.5 -30.5t-65.5 -10.5q-62 0 -100.5 23.5t-59.5 57t-28 70t-7 63.5zM484 1021q0 54 16.5 106t44.5 98t64 84.5t74 67.5q15 11 34.5 22t36.5 11q20 0 25 -13t5 -24q-1 -13 -8.5 -24t-18.5 -20t-22.5 -17.5t-20.5 -16.5q-14 -14 -29 -31t-27 -36 t-20 -39t-8 -40q0 -8 2.5 -17t19.5 -9q32 0 65.5 -10t61.5 -30t45.5 -49.5t17.5 -68.5q0 -38 -12 -67.5t-34 -49.5t-51.5 -30.5t-65.5 -10.5q-62 0 -100.5 23.5t-59.5 57t-28 70t-7 63.5z" />
<glyph unicode="&#x201d;" horiz-adv-x="971" d="M130 1252q0 38 12 67.5t34 49.5t51.5 30.5t65.5 10.5q62 0 100.5 -23.5t59.5 -57t28 -70t7 -63.5q0 -54 -17 -106t-44.5 -98t-63.5 -85t-74 -67q-15 -11 -34.5 -22t-36.5 -11q-20 0 -25 13t-5 24q1 13 8.5 24t18.5 20t22.5 17.5t20.5 16.5q14 14 29 31t27 36t20 39t8 40 q0 8 -2.5 17t-19.5 9q-32 0 -65.5 10t-61.5 30t-45.5 49.5t-17.5 68.5zM568 1252q0 38 12 67.5t34 49.5t51.5 30.5t65.5 10.5q62 0 100.5 -23.5t59.5 -57t28 -70t7 -63.5q0 -54 -17 -106t-44.5 -98t-63.5 -85t-74 -67q-15 -11 -34.5 -22t-36.5 -11q-20 0 -25 13t-5 24 q1 13 8.5 24t18.5 20t22.5 17.5t20.5 16.5q14 14 29 31t27 36t20 39t8 40q0 8 -2.5 17t-19.5 9q-32 0 -65.5 10t-61.5 30t-45.5 49.5t-17.5 68.5z" />
<glyph unicode="&#x2022;" horiz-adv-x="912" d="M110 780q0 71 28 134t75 110t110 74.5t133 27.5t133 -27.5t110 -74.5t75 -110t28 -134q0 -74 -28 -137.5t-75 -110t-110 -72.5t-133 -26t-133 26t-110 72.5t-75 110t-28 137.5z" />
<glyph unicode="&#x2026;" horiz-adv-x="2502" d="M245 132q0 35 13.5 66t37 54.5t55 37.5t66.5 14q36 0 67 -14t54.5 -38t37 -55.5t13.5 -65.5q0 -38 -13.5 -69t-37 -54t-54.5 -35.5t-67 -12.5q-35 0 -66.5 13t-55 36t-37 54.5t-13.5 68.5zM1079 132q0 35 13.5 66t37 54.5t55 37.5t66.5 14q36 0 67 -14t54.5 -38t37 -55.5 t13.5 -65.5q0 -38 -13.5 -69t-37 -54t-54.5 -35.5t-67 -12.5q-35 0 -66.5 13t-55 36t-37 54.5t-13.5 68.5zM1913 132q0 35 13.5 66t37 54.5t55 37.5t66.5 14q36 0 67 -14t54.5 -38t37 -55.5t13.5 -65.5q0 -38 -13.5 -69t-37 -54t-54.5 -35.5t-67 -12.5q-35 0 -66.5 13 t-55 36t-37 54.5t-13.5 68.5z" />
<glyph unicode="&#x202f;" horiz-adv-x="347" />
<glyph unicode="&#x2044;" horiz-adv-x="360" d="M-475 -55l1100 1535h190l-1101 -1535h-189z" />
<glyph unicode="&#x205f;" horiz-adv-x="433" />
<glyph unicode="&#x2070;" horiz-adv-x="646" d="M48 956q0 74 18 149.5t53 136t87 99t120 38.5q69 0 120 -38t84.5 -99t50.5 -136t17 -150q0 -93 -17 -170.5t-51 -133t-85 -86.5t-119 -31t-120 31t-87 86.5t-53 133t-18 170.5zM189 956q0 -71 4.5 -135t19 -112.5t41.5 -77.5t72 -29q46 0 72 29.5t39 78.5t16 113.5 t3 133.5q0 38 -2 79t-7 80.5t-14.5 75.5t-23.5 62.5t-34.5 42.5t-47.5 16q-45 0 -72.5 -34.5t-42 -87.5t-19 -116t-4.5 -119z" />
<glyph unicode="&#x20ac;" horiz-adv-x="1219" d="M25 528v36q0 11 7.5 18t19.5 7h119q-2 17 -2 35v36q0 58 6 114h-123q-12 0 -19.5 7t-7.5 18v36q0 11 7.5 18t19.5 7h137q25 118 78 213.5t126.5 163.5t164.5 105t193 37q46 0 95.5 -11t94 -25t80 -27.5t54.5 -19.5q5 -2 8.5 -3t6.5 -1q1 0 10 3.5t12 3.5h23q9 0 9 -16 v-295q0 -6 -3.5 -8t-14.5 -2q-2 0 -6 0.5t-6 5.5q-2 7 -8.5 22t-8.5 21q-57 143 -139 215t-195 72q-91 0 -165.5 -33.5t-129 -93.5t-88 -143.5t-42.5 -183.5h653q12 0 19.5 -7t7.5 -18v-36q0 -11 -7.5 -18t-19.5 -7h-658q-1 -15 -1 -30v-32q0 -31 1 -62t3 -61h544 q12 0 19.5 -7t7.5 -18v-36q0 -11 -7.5 -18t-19.5 -7h-535q14 -99 46.5 -183.5t84 -146.5t122.5 -97.5t162 -35.5q64 0 116 24t95 66t78.5 98.5t66.5 122.5q2 5 4 5.5t5 0.5h10q2 0 4.5 -2.5t2.5 -10.5q0 -2 -1.5 -10t-2.5 -10l-104 -289q-2 -7 -9 -7q-18 6 -25 7t-15 1 q-18 0 -48 -10t-66.5 -21.5t-78.5 -21.5t-84 -10q-103 0 -191.5 37t-157 105.5t-115 166.5t-64.5 221h-128q-12 0 -19.5 7t-7.5 18z" />
<glyph unicode="&#x2122;" horiz-adv-x="2361" d="M30 1173v19l26 205q1 7 5.5 13t15.5 6t19 -8t16 -11t15.5 -3.5t16.5 -0.5h734q9 0 16.5 0.5t15.5 3.5t16 11t18 8q11 0 16 -6t6 -13l26 -205v-19q0 -3 -4 -3h-23q-4 0 -5 2q-2 1 -3.5 8.5t-2.5 13.5q-5 19 -9 38.5t-12.5 37t-23 30.5t-40.5 18h-238q-9 -2 -15 -3t-6 -14 v-637q0 -18 10.5 -32t28.5 -24.5t42 -17.5t52 -9q8 -1 19 -1h20q4 0 5 -2t1 -3v-23q0 -1 -1 -3t-5 -2h-544q-5 0 -5 5v23q0 1 1 3t4 2h20q12 0 20 1q28 2 52 9t42 17.5t28.5 24.5t10.5 32v637q0 13 -6 14t-15 3h-237q-26 -5 -41 -18t-23 -30.5t-12.5 -37t-8.5 -38.5 q-2 -6 -3.5 -13.5t-2.5 -8.5q-1 -2 -5 -2h-23q-4 0 -4 3zM987 552v26q0 1 1 3t5 2q46 0 71.5 9.5t38 26t15 39t4.5 49.5q4 77 10 150t11.5 143.5t9.5 139.5t4 138v23q0 13 -10.5 23.5t-25 18t-29 11t-22.5 3.5q-6 0 -6 5v26q0 2 0.5 3.5t5.5 1.5h248q13 -1 21 -13l305 -582 q5 -10 12 -10q8 0 11.5 2.5t5.5 7.5l301 571q14 24 28 24h247q5 0 5 -5v-26q0 -5 -5 -5q-2 0 -17 -2.5t-33 -9t-32.5 -19.5t-14.5 -34l41 -639q1 -26 21.5 -40.5t45 -21t44.5 -7.5t22 -1q3 0 4 -2t1 -3v-26q0 -1 -1 -3t-4 -2h-461q-6 0 -6 5v26q0 5 6 5q16 0 38 1.5t41 7 t32.5 15.5t13.5 28l-32 490q-1 6 -3 6q-4 0 -6 -5l-307 -569q-4 -6 -9.5 -8t-20.5 -2q-25 0 -37 1.5t-17 9.5l-298 563q-2 5 -3 7t-4 2q-5 0 -5 -8q0 -18 -2 -53t-5.5 -78.5t-7 -92t-7 -94.5t-5.5 -85t-2 -64v-25q3 -11 14 -20t27.5 -15t37.5 -9t43 -3q4 0 4 -5v-26 q0 -5 -4 -5h-348q-6 0 -6 5z" />
<glyph unicode="&#xe000;" horiz-adv-x="920" d="M0 920h920v-920h-920v920z" />
</font>
</defs>
</svg>
