<?xml version="1.0" standalone="no"?>
<!DOCTYPE svg PUBLIC "-//W3C//DTD SVG 1.1//EN" "http://www.w3.org/Graphics/SVG/1.1/DTD/svg11.dtd" >
<svg xmlns="http://www.w3.org/2000/svg">
<metadata></metadata>
<defs>
<font id="crushedregular" horiz-adv-x="1002" >
<font-face units-per-em="2048" ascent="1638" descent="-410" />
<missing-glyph horiz-adv-x="400" />
<glyph horiz-adv-x="2048" />
<glyph horiz-adv-x="2048" />
<glyph unicode="&#xd;" horiz-adv-x="2048" />
<glyph unicode=" "  horiz-adv-x="400" />
<glyph unicode="&#x09;" horiz-adv-x="400" />
<glyph unicode="&#xa0;" horiz-adv-x="400" />
<glyph unicode="!" horiz-adv-x="412" d="M101 1374h210q-11 -170 -25 -401t-14 -535v-99h-132v99q0 304 -14 535t-25 401zM102 82q0 21 8 40t22 33.5t33 22.5t41 8q21 0 40 -8t33.5 -22.5t22.5 -33.5t8 -40q0 -22 -8 -41t-22.5 -33t-33.5 -22t-40 -8q-44 0 -74 30t-30 74z" />
<glyph unicode="&#x22;" horiz-adv-x="500" d="M60 1374h143l-20 -405h-103zM297 1374h143l-20 -405h-103z" />
<glyph unicode="#" horiz-adv-x="952" d="M65 483v113h160l68 385h-144v112h162l52 281h121l-50 -281h186l52 281h121l-50 -281h144v-112h-164l-66 -385h146v-113h-166l-50 -283h-121l50 283h-188l-50 -283h-121l50 283h-142zM348 596h186l68 385h-188z" />
<glyph unicode="$" horiz-adv-x="760" d="M60 1031q0 72 23.5 125t61.5 89.5t87 58t100 30.5v137h92v-130q59 -1 114.5 -10t106.5 -20v-183q-29 24 -56 44t-53.5 34t-54 22.5t-57.5 9.5v-470q49 -40 98 -82.5t88.5 -91t64.5 -106t25 -127.5q0 -81 -24 -138.5t-63 -95.5t-88.5 -59.5t-100.5 -29.5v-135h-92v130 q-44 0 -80.5 3.5t-68.5 9.5t-60 14t-54 17v187q29 -27 58.5 -50t61 -40.5t66.5 -27.5t77 -10v506q-49 40 -97.5 81t-87.5 88t-63 101t-24 119zM220 1058q0 -62 31.5 -112.5t80.5 -97.5v376q-50 -17 -81 -57.5t-31 -108.5zM424 153q49 20 81.5 67.5t32.5 127.5 q0 63 -32 114.5t-82 99.5v-409z" />
<glyph unicode="%" horiz-adv-x="1080" d="M50 1024q0 82 16.5 147t45.5 110t69 69t88 24t88 -24t69 -69t45.5 -110t16.5 -147t-18 -147t-48 -110.5t-69.5 -69.5t-83.5 -24q-48 0 -88 24t-69 69.5t-45.5 110.5t-16.5 147zM171 1024q0 -122 22.5 -192t75.5 -70q52 0 75 70t23 192t-23 191.5t-75 69.5 q-53 0 -75.5 -69.5t-22.5 -191.5zM207 0l547 1374h109l-547 -1374h-109zM592 351q0 82 16.5 147t45.5 110t69 69t88 24t88 -24t69 -69t45.5 -110t16.5 -147t-18 -147t-48 -110.5t-69.5 -69.5t-83.5 -24q-48 0 -88 24t-69 69.5t-45.5 110.5t-16.5 147zM713 351 q0 -122 22.5 -192t75.5 -70q52 0 75 70t23 192t-23 191.5t-75 69.5q-53 0 -75.5 -69.5t-22.5 -191.5z" />
<glyph unicode="&#x26;" horiz-adv-x="971" d="M74 329q0 66 14.5 121.5t38.5 104t56 90.5t67 81q-36 94 -57 184.5t-21 176.5q0 77 20 135.5t54.5 97.5t81.5 59t101 20q47 0 88.5 -16t72 -47.5t48.5 -78t18 -107.5q0 -69 -22.5 -126.5t-57.5 -107.5t-79.5 -96.5t-87.5 -94.5q47 -104 112.5 -207.5t146.5 -208.5 q18 42 31.5 87t22.5 89.5t14 86t7 77.5h165q-9 -48 -22.5 -104t-32.5 -114.5t-44 -116.5t-57 -110q43 -51 87.5 -102t91.5 -102h-216q-33 34 -66 75q-50 -47 -111 -74.5t-135 -27.5q-75 0 -136 24t-103.5 70t-66 112t-23.5 150zM231 341q0 -54 12 -100t36 -79.5t59 -53 t80 -19.5q48 0 87.5 20t72.5 55q-74 97 -144 206.5t-127 225.5q-34 -54 -55 -116t-21 -139zM320 1096q0 -62 11 -124.5t31 -126.5q31 33 58.5 67t48 70.5t32.5 76.5t12 85q0 41 -7 69t-19 44.5t-27.5 23.5t-32.5 7q-47 0 -77 -47.5t-30 -144.5z" />
<glyph unicode="'" horiz-adv-x="263" d="M60 1374h143l-20 -405h-103z" />
<glyph unicode="(" horiz-adv-x="582" d="M120 680q0 130 16.5 244t43.5 214t60.5 187t68.5 164h194q-50 -88 -92.5 -178t-73.5 -187.5t-48 -207t-17 -236.5q0 -125 17 -233t48 -205t73.5 -186t92.5 -177h-194q-35 76 -68.5 163t-60.5 186t-43.5 211.5t-16.5 240.5z" />
<glyph unicode=")" horiz-adv-x="582" d="M79 -121q50 88 92.5 177t73 186t48 205t17.5 233q0 127 -17.5 236.5t-48 207t-73 187.5t-92.5 178h194q34 -77 68 -164t61 -187t43.5 -214t16.5 -244q0 -128 -16.5 -240.5t-43.5 -211.5t-61 -186t-68 -163h-194z" />
<glyph unicode="*" horiz-adv-x="628" d="M70 1198l57 100q26 -24 62.5 -50t83.5 -54q-1 55 -5 99.5t-12 80.5h115q-10 -37 -13.5 -81.5t-4.5 -99.5q45 28 81 53.5t63 51.5l61 -100q-38 -11 -78 -29t-85 -43q45 -24 85.5 -43.5t77.5 -29.5l-58 -102q-26 26 -63.5 52t-83.5 54q1 -56 4.5 -100.5t13.5 -78.5h-115 q8 34 12 78t5 99q-47 -29 -83 -53.5t-63 -50.5l-56 100q37 11 77 29.5t87 44.5q-45 24 -87 43t-78 30z" />
<glyph unicode="+" horiz-adv-x="1124" d="M150 624v122h351v354h122v-354h351v-122h-351v-355h-122v355h-351z" />
<glyph unicode="," horiz-adv-x="311" d="M50 88q0 42 30 70t74 28q21 0 40.5 -8.5t34.5 -24t23.5 -39t8.5 -53.5q0 -36 -11.5 -69t-30 -61.5t-41.5 -50.5t-46 -36l-53 55q25 11 43.5 34t18.5 58q-39 5 -65 30.5t-26 66.5z" />
<glyph unicode="-" horiz-adv-x="610" d="M120 616v141h370v-141h-370z" />
<glyph unicode="." horiz-adv-x="308" d="M50 82q0 21 8 40t22 33.5t33 22.5t41 8q21 0 40 -8t33.5 -22.5t22.5 -33.5t8 -40q0 -22 -8 -41t-22.5 -33t-33.5 -22t-40 -8q-44 0 -74 30t-30 74z" />
<glyph unicode="/" horiz-adv-x="500" d="M33 -41l314 1456h120l-314 -1456h-120z" />
<glyph unicode="0" horiz-adv-x="882" d="M66 686q0 190 28 325t78.5 221t119.5 126.5t150 40.5t150 -40.5t118.5 -126.5t77.5 -221t28 -325q0 -191 -28 -326t-77.5 -221t-118.5 -126t-150 -40t-150 40t-119.5 126t-78.5 221t-28 326zM236 686q0 -164 14.5 -276.5t41 -183t64.5 -101.5t86 -31t86.5 31t65 101.5 t40.5 183t12 276.5q-2 161 -16.5 274t-40.5 183.5t-63 102.5t-84 32q-48 0 -86 -31.5t-64.5 -102t-41 -183t-14.5 -275.5z" />
<glyph unicode="1" horiz-adv-x="491" d="M33 1262v95l317 42q-6 -85 -9.5 -178t-5.5 -186t-3 -181.5t-1 -165.5t1 -162t3 -173.5t5 -178t8 -174.5h-187q6 85 9.5 174.5t5.5 178t3 173.5t1 162q0 78 -1.5 166t-3.5 169.5t-4.5 148.5t-3.5 102z" />
<glyph unicode="2" horiz-adv-x="727" d="M30 0v136q86 94 154 174t119 151.5t87 136.5t58.5 129t32 129t8.5 137q-1 70 -16.5 123.5t-42.5 89.5t-64 54t-82 18q-54 0 -117 -27.5t-131 -93.5v166q35 24 71 38.5t71.5 23t69 11.5t63.5 3q73 0 136.5 -24t111 -74t75 -126.5t27.5 -181.5q0 -112 -34 -220t-96 -215.5 t-150 -215.5t-196 -219q106 0 200 1q40 0 81 1t78.5 2t68 2.5t50.5 3.5v-133h-633z" />
<glyph unicode="3" horiz-adv-x="742" d="M30 41v171q33 -27 63 -48.5t60.5 -37t64.5 -24t74 -8.5q51 0 94 17.5t74.5 52.5t49 87.5t17.5 123.5q0 70 -19.5 127t-59.5 97t-100 61.5t-141 20.5v119q76 0 130.5 20.5t89.5 56.5t51.5 84.5t16.5 104.5q0 58 -16 98.5t-43.5 65.5t-64 36.5t-76.5 11.5q-54 0 -114 -23.5 t-126 -80.5v165q71 32 134.5 46t137.5 14q65 0 126 -20t108 -60t75 -101.5t28 -143.5q0 -56 -19.5 -106.5t-52.5 -92.5t-78 -75t-96 -54q53 -17 103 -48t89 -77t63 -107.5t24 -139.5q0 -99 -32 -174.5t-86.5 -125.5t-126.5 -75.5t-152 -25.5q-78 0 -144 18t-126 50z" />
<glyph unicode="4" horiz-adv-x="850" d="M40 362v119q37 82 76.5 163.5t78.5 159.5t76 151t70 136q77 149 152 283h189q-6 -85 -9.5 -174t-5.5 -177t-3 -173t-1 -162v-98.5t1 -104.5h146v-123h-144q2 -91 5.5 -182.5t8.5 -179.5h-187q5 88 9 179.5t6 182.5h-468zM177 485h333q1 54 1.5 104.5t0.5 98.5 q0 106 -1.5 224.5t-6.5 239.5q-47 -88 -92.5 -180t-87.5 -179t-79.5 -166t-67.5 -142z" />
<glyph unicode="5" horiz-adv-x="767" d="M50 42v171q33 -27 63.5 -49t61 -37.5t62.5 -24t68 -8.5q49 0 95 18t81.5 57.5t57 102.5t21.5 154q0 85 -21.5 145t-57.5 98t-82.5 56t-97.5 18q-57 0 -101 -16.5t-77 -34.5l-43 27q1 24 3 60t3.5 79.5t2.5 93.5t1 102q0 77 -2.5 158.5t-10.5 161.5h555v-123h-402 q-2 -52 -3.5 -102t-1.5 -95t0.5 -83t1.5 -66q1 -33 3 -59q19 5 42.5 11.5t65.5 6.5q78 0 147 -28.5t120.5 -84t81.5 -136t30 -183.5q0 -111 -31 -197t-84.5 -144t-125 -88t-152.5 -30q-72 0 -143 18.5t-131 50.5z" />
<glyph unicode="6" horiz-adv-x="842" d="M66 651q0 166 31 303.5t89 236.5t140.5 153.5t186.5 54.5q43 0 93.5 -7.5t110.5 -31.5v-166q-36 33 -86 59.5t-118 26.5q-61 0 -108.5 -31.5t-81 -91.5t-54.5 -147t-29 -198q42 21 93 34t98 13q77 0 142 -27t112.5 -81.5t74 -136.5t26.5 -192q0 -96 -23.5 -178.5 t-68 -142.5t-107.5 -94t-142 -34q-87 0 -157 40t-119.5 123.5t-76 211t-26.5 303.5zM235 651v7q1 -155 14 -263.5t38.5 -176t64.5 -98t92 -30.5q48 0 82 24.5t55 68t30.5 104t9.5 131.5q0 83 -14 145t-40 102.5t-62.5 60.5t-80.5 20q-54 0 -102.5 -19.5t-86.5 -47.5v-28z " />
<glyph unicode="7" horiz-adv-x="687" d="M20 1231v143h647v-40q-52 -111 -94 -227t-75 -230.5t-58 -224t-43 -206.5q-43 -229 -62 -446h-198q31 173 69 335t83.5 317t98 304t112.5 295q-76 -1 -158 -3q-70 -2 -155 -5.5t-167 -11.5z" />
<glyph unicode="8" horiz-adv-x="843" d="M58 374q0 134 59.5 228.5t165.5 143.5q-95 50 -141.5 130t-46.5 177q0 78 25.5 141.5t70.5 109t105 70.5t129 25q66 0 125 -25t103 -70.5t69.5 -109t25.5 -141.5q0 -97 -47 -177t-142 -130q106 -49 166 -143.5t60 -228.5q0 -98 -28.5 -173t-77.5 -125.5t-115.5 -76.5 t-142.5 -26t-142.5 26t-115.5 76.5t-77 125.5t-28 173zM226 384q0 -142 50 -218t145 -76t145.5 76t50.5 218t-50.5 220t-145.5 78t-145 -78t-50 -220zM260 1043q0 -117 42 -179.5t119 -62.5t119.5 62.5t42.5 179.5t-40.5 179t-117.5 62t-121 -62t-44 -179z" />
<glyph unicode="9" horiz-adv-x="842" d="M56 950q0 96 23.5 178.5t68 142.5t107.5 94t142 34q87 0 157 -40t119.5 -123.5t76 -211.5t26.5 -303q0 -166 -31 -303.5t-89 -236.5t-141 -153.5t-186 -54.5q-43 0 -93.5 7.5t-110.5 31.5v166q36 -33 86 -59.5t118 -26.5q61 0 108 31.5t81 91.5t54.5 147t28.5 197 q-42 -20 -93 -33t-97 -13q-77 0 -142 27t-112.5 81.5t-74 136.5t-26.5 192zM221 954q0 -83 14 -145t40 -102.5t62.5 -60.5t80.5 -20q54 0 102.5 19t86.5 48v-1q0 161 -12.5 273.5t-38 183t-65 102t-93.5 31.5q-48 0 -82 -24.5t-55 -68t-30.5 -104t-9.5 -131.5z" />
<glyph unicode=":" horiz-adv-x="368" d="M80 82q0 21 8 40t22 33.5t33 22.5t41 8q21 0 40 -8t33.5 -22.5t22.5 -33.5t8 -40q0 -22 -8 -41t-22.5 -33t-33.5 -22t-40 -8q-44 0 -74 30t-30 74zM80 740q0 21 8 40t22 33.5t33 22.5t41 8q21 0 40 -8t33.5 -22.5t22.5 -33.5t8 -40q0 -22 -8 -41t-22.5 -33t-33.5 -22 t-40 -8q-44 0 -74 30t-30 74z" />
<glyph unicode=";" horiz-adv-x="371" d="M80 88q0 42 30 70t74 28q21 0 40.5 -8.5t34.5 -24t23.5 -39t8.5 -53.5q0 -36 -11.5 -69t-30 -61.5t-41.5 -50.5t-46 -36l-53 55q25 11 43.5 34t18.5 58q-39 5 -65 30.5t-26 66.5zM80 740q0 21 8 40t22 33.5t33 22.5t41 8q21 0 40 -8t33.5 -22.5t22.5 -33.5t8 -40 q0 -22 -8 -41t-22.5 -33t-33.5 -22t-40 -8q-44 0 -74 30t-30 74z" />
<glyph unicode="&#x3c;" horiz-adv-x="1124" d="M150 634v102l824 370v-131l-652 -290l652 -290v-131z" />
<glyph unicode="=" horiz-adv-x="1124" d="M170 448v122h784v-122h-784zM170 800v122h784v-122h-784z" />
<glyph unicode="&#x3e;" horiz-adv-x="1124" d="M150 264v131l652 290l-652 290v131l824 -370v-102z" />
<glyph unicode="?" horiz-adv-x="670" d="M50 1155v190q49 22 115 38t130 16q70 0 129.5 -22.5t103 -63.5t68 -99.5t24.5 -130.5q0 -66 -24.5 -123t-61 -107.5t-79 -94.5t-79 -85t-61 -79.5t-24.5 -76.5q0 -22 8.5 -39t20.5 -29t25 -20.5t23 -13.5l-105 -99q-50 36 -82.5 88t-32.5 107q0 57 22.5 108.5t56 100 t73 94t73 91t56 91.5t22.5 95q0 48 -13.5 83.5t-36.5 59.5t-54.5 36t-67.5 12q-66 0 -122 -35t-107 -92zM165 82q0 21 8 40t22 33.5t33 22.5t41 8q21 0 40 -8t33.5 -22.5t22.5 -33.5t8 -40q0 -22 -8 -41t-22.5 -33t-33.5 -22t-40 -8q-44 0 -74 30t-30 74z" />
<glyph unicode="@" horiz-adv-x="1556" d="M135 634q0 104 25 201.5t71 182.5t111 155.5t144.5 120.5t171.5 78t192 28q123 0 227.5 -41t181 -118t119.5 -188t43 -251q0 -90 -23.5 -176t-66.5 -153t-103.5 -108t-134.5 -41q-19 0 -42 4.5t-46 16t-43.5 31.5t-34.5 52q-16 -20 -38.5 -39t-49.5 -34.5t-58 -25 t-65 -9.5q-56 0 -103 18.5t-81.5 55.5t-54 91.5t-19.5 126.5q0 106 33 187.5t85.5 136.5t118 83.5t129.5 28.5q38 0 77 -13.5t72 -36.5l7 39h132l-58 -505q-4 -29 0 -49t13 -32.5t22.5 -18.5t28.5 -6q42 0 75.5 33t57.5 85.5t36.5 119t12.5 134.5q0 119 -32 208.5t-92 149 t-145.5 89.5t-192.5 30q-123 0 -225 -55.5t-175.5 -147t-114 -208.5t-40.5 -240q0 -125 33.5 -224t97 -167.5t155 -104.5t206.5 -36q92 0 182 23t177 73l50 -99q-94 -54 -200 -85t-219 -31q-142 0 -258 44.5t-198.5 129t-128 207.5t-45.5 280zM606 617q0 -53 11 -92 t29.5 -64.5t43 -38t52.5 -12.5q94 0 174 124l42 356q-34 36 -65.5 54t-77.5 18q-36 0 -73.5 -24t-67.5 -68.5t-49 -108.5t-19 -144z" />
<glyph unicode="A" horiz-adv-x="835" d="M6 0q32 121 63 249.5t59 256t53.5 251t47 236t39.5 209.5t31 172h237q13 -75 31 -172t39.5 -209.5t47 -236t53.5 -251t59 -256t63 -249.5h-190q-14 96 -29 190l-30 188h-325q-16 -94 -30.5 -188t-28.5 -190h-190zM274 495h286q-29 171 -62.5 339t-73.5 338h-14 q-41 -170 -74 -338t-62 -339z" />
<glyph unicode="B" horiz-adv-x="846" d="M100 0q6 85 9.5 174.5t5.5 178t3 173.5t1 162t-1 162t-3 173t-5.5 177t-9.5 174h308q80 0 145.5 -19.5t112.5 -60t72.5 -104.5t25.5 -152q0 -71 -15 -124t-40.5 -90t-58.5 -59.5t-70 -31.5q44 -8 85.5 -32.5t73.5 -68t51 -106.5t19 -147q0 -88 -19.5 -158t-62 -119 t-110 -75.5t-164.5 -26.5h-353zM270 670q0 -127 3 -269.5t8 -285.5h163q45 0 81 14.5t61 48.5t38 88.5t13 134.5q0 78 -14.5 129.5t-41 82.5t-63.5 44t-82 13h-166zM270 784h150q49 0 82.5 13t53.5 40.5t29 70.5t9 102q0 57 -8 103.5t-28 79t-53.5 50t-84.5 17.5h-138 q-6 -121 -8.5 -242.5t-3.5 -233.5z" />
<glyph unicode="C" horiz-adv-x="852" d="M68 686q0 181 39.5 314.5t107 221t158 130.5t192.5 43q69 0 125.5 -8.5t112.5 -22.5v-201q-23 19 -47 39.5t-51.5 37t-61.5 27.5t-78 11q-73 0 -132.5 -38.5t-102 -113.5t-65.5 -185.5t-23 -254.5t23 -254.5t65.5 -185.5t102 -113.5t132.5 -38.5q44 0 78 11t61.5 27.5 t51.5 37t47 39.5v-201q-56 -14 -112.5 -22.5t-125.5 -8.5q-107 0 -198 43t-157.5 130.5t-104 221t-37.5 314.5z" />
<glyph unicode="D" horiz-adv-x="964" d="M100 0q6 85 9.5 174.5t5.5 178t3 173.5t1 162t-1 162t-3 173t-5.5 177t-9.5 174h313q107 0 196 -33t152.5 -112.5t99 -211.5t35.5 -329q0 -198 -35.5 -330.5t-99.5 -212t-153 -112.5t-197 -33h-311zM270 688q0 -129 2 -277.5t9 -295.5h134q43 0 82.5 9.5t73 33.5 t61.5 65.5t47.5 105t30 152t10.5 207.5t-10.5 207.5t-30 152t-47.5 104.5t-61.5 65t-73 33.5t-82.5 9.5h-133q-7 -148 -9.5 -295.5t-2.5 -276.5z" />
<glyph unicode="E" horiz-adv-x="764" d="M100 0q6 85 9.5 174.5t5.5 178t3 173.5t1 162t-1 162t-3 173t-5.5 177t-9.5 174h580v-117h-398q-6 -115 -8.5 -229.5t-3.5 -222.5h381v-117h-381q0 -129 2 -276.5t9 -294.5h405v-117h-586z" />
<glyph unicode="F" horiz-adv-x="702" d="M100 0q6 85 9.5 174.5t5.5 178t3 173.5t1 162t-1 162t-3 173t-5.5 177t-9.5 174h559v-117h-377q-6 -118 -8.5 -237t-3.5 -229h361v-117h-361q0 -76 1 -159.5t3 -170t5 -174t8 -170.5h-187z" />
<glyph unicode="G" horiz-adv-x="946" d="M68 686q0 181 39.5 314.5t107.5 221t158.5 130.5t192.5 43q42 0 76 -3.5t63.5 -9.5t55.5 -15t51 -19v-202q-65 73 -122.5 102.5t-124.5 29.5q-77 0 -137 -42.5t-101.5 -120.5t-63 -186.5t-21.5 -240.5q0 -128 20 -236.5t60 -188t100.5 -124.5t141.5 -45q35 0 61.5 5.5 t52.5 19.5q1 22 2 51q1 25 2 60.5t1 82.5q0 51 -1.5 113t-5.5 134h-182v116h364q-4 -82 -5.5 -161t-1.5 -151t0.5 -131.5t2.5 -102.5q2 -51 4 -91q-51 -26 -124 -44t-177 -18t-193 43t-155 130.5t-103.5 221t-37.5 314.5z" />
<glyph unicode="H" horiz-adv-x="953" d="M100 0q6 85 9.5 174.5t5.5 178t3 173.5t1 162t-1 162t-3 173t-5.5 177t-9.5 174h189q-10 -140 -13.5 -286.5t-5.5 -282.5h411q-1 136 -5 282.5t-12 286.5h188q-5 -85 -8.5 -174t-5.5 -177t-3 -173t-1 -162t1 -162t3 -173.5t4.5 -178t7.5 -174.5h-186q5 85 8.5 174.5 t5.5 178t3 173.5t1 162h-412q0 -77 1 -162t3 -173.5t5 -178t8 -174.5h-187z" />
<glyph unicode="I" horiz-adv-x="401" d="M106 0q6 85 9.5 174.5t5.5 178t3 173.5t1 162t-1 162t-3 173t-5.5 177t-9.5 174h189q-6 -85 -9.5 -174t-5.5 -177t-3 -173t-1 -162t1 -162t3 -173.5t5 -178t8 -174.5h-187z" />
<glyph unicode="J" horiz-adv-x="571" d="M20 -16v137q10 -3 38 -11t71 -8q31 0 59 9t50 33t38 66t24 108q8 64 8.5 168t0.5 244q0 152 -3.5 316t-14.5 328h188q-5 -82 -8 -161t-5.5 -151t-3.5 -134.5t-1 -112.5q0 -56 0.5 -116t1.5 -114t1.5 -96.5t0.5 -63.5q0 -107 -21 -191t-64 -142t-109.5 -88t-157.5 -30 q-29 0 -56.5 4t-36.5 6z" />
<glyph unicode="K" horiz-adv-x="834" d="M100 0q6 85 9.5 174.5t5.5 178t3 173.5t1 162t-1 162t-3 173t-5.5 177t-9.5 174h189q-9 -139 -13 -284t-6 -280q36 53 75 117t80.5 136t83.5 150.5t83 160.5h208q-44 -60 -95 -133t-103 -150t-103 -155t-96 -147q42 -98 90 -197.5t103.5 -198.5t119.5 -197.5t138 -195.5 h-211q-25 38 -54 88.5t-59.5 108t-61.5 119.5t-60.5 122.5t-55.5 117t-47 103.5l-35 -59q0 -69 1.5 -144.5t3.5 -153.5t5 -155t7 -147h-187z" />
<glyph unicode="L" horiz-adv-x="696" d="M100 0q6 85 9.5 174.5t5.5 178t3 173.5t1 162t-1 162t-3 173t-5.5 177t-9.5 174h189q-6 -85 -9.5 -174t-5.5 -177t-3 -173t-1 -162q0 -129 2 -276.5t9 -294.5h405v-117h-586z" />
<glyph unicode="M" horiz-adv-x="1189" d="M100 0q6 85 9.5 174.5t5.5 178t3 173.5t1 162t-1 162t-3 173t-5.5 177t-9.5 174h237q59 -285 119.5 -545.5t131.5 -493.5h13q71 233 131.5 493.5t119.5 545.5h237q-6 -85 -9.5 -174t-5.5 -177t-3 -173t-1 -162t1 -162t3 -173.5t5.5 -178t9.5 -174.5h-183q5 85 8 174.5 t5 178t3 173.5t1 162v89v105.5t-0.5 108.5t-1.5 97h-10q-39 -132 -73.5 -272t-65 -280t-57 -276t-50.5 -260h-141q-24 124 -50.5 260t-57 276t-65 280t-73.5 272h-10q-2 -43 -2.5 -97t-0.5 -108.5t0.5 -105.5t0.5 -89q0 -77 1 -162t3 -173.5t5 -178t8 -174.5h-183z" />
<glyph unicode="N" horiz-adv-x="951" d="M100 0q6 85 9.5 174.5t5.5 178t3 173.5t1 162t-1 162t-3 173t-5.5 177t-9.5 174h187q101 -294 198 -555t194 -495h7q1 44 1 92t-0.5 95.5t-1 92.5t-0.5 84q0 77 -1 162t-3 173t-5.5 177t-9.5 174h185q-6 -85 -9.5 -174t-5.5 -177t-3 -173t-1 -162t1 -162t3 -173.5t5 -178 t8 -174.5h-185q-51 147 -100 280t-97.5 257.5t-96.5 243t-96 235.5h-7q-2 -70 -2 -136q1 -18 1 -34v-158q0 -77 1 -162t3 -173.5t5 -178t8 -174.5h-183z" />
<glyph unicode="O" d="M68 686q0 184 33.5 318.5t92 222.5t137.5 130t171 42q91 0 170 -42t137.5 -130t91.5 -222.5t33 -318.5q0 -185 -33 -319.5t-91.5 -222t-137.5 -129.5t-170 -42q-92 0 -171 42t-137.5 129.5t-92 222t-33.5 319.5zM240 686q0 -155 20 -267t55.5 -184t83 -106.5t103.5 -34.5 q55 0 102.5 34.5t82.5 106.5t55 184t20 267q0 154 -20 266t-55 184.5t-82.5 107t-102.5 34.5q-56 0 -103.5 -34.5t-83 -107t-55.5 -184.5t-20 -266z" />
<glyph unicode="P" horiz-adv-x="838" d="M100 0q6 85 9.5 174.5t5.5 178t3 173.5t1 162t-1 162t-3 173t-5.5 177t-9.5 174h334q84 0 150 -28.5t111.5 -83.5t69 -134t23.5 -179q0 -43 -8 -91.5t-26 -95.5t-46 -90.5t-68.5 -76.5t-94 -52.5t-121.5 -19.5h-154q2 -128 5.5 -261.5t11.5 -261.5h-187zM270 634h154 q90 0 140 82.5t50 232.5q0 153 -47 233t-143 80h-142q-7 -148 -9.5 -296t-2.5 -278v-54z" />
<glyph unicode="Q" d="M68 686q0 184 33.5 318.5t92 222.5t137.5 130t171 42q91 0 170 -42t137.5 -130t91.5 -222.5t33 -318.5q0 -220 -46 -367.5t-125 -232.5q38 -17 72.5 -28t60.5 -19q31 -9 58 -14l-80 -140q-51 17 -105 49.5t-111 73.5q-73 -35 -156 -35q-92 0 -171 42t-137.5 129.5 t-92 222t-33.5 319.5zM240 686q0 -155 20 -267t55.5 -184t83 -106.5t103.5 -34.5q55 0 102.5 34.5t82.5 106.5t55 184t20 267q0 154 -20 266t-55 184.5t-82.5 107t-102.5 34.5q-56 0 -103.5 -34.5t-83 -107t-55.5 -184.5t-20 -266z" />
<glyph unicode="R" horiz-adv-x="846" d="M100 0q6 85 9.5 174.5t5.5 178t3 173.5t1 162t-1 162t-3 173t-5.5 177t-9.5 174h326q169 0 261.5 -99t92.5 -300q0 -130 -45 -214.5t-133 -129.5q22 -86 55 -187q29 -87 72.5 -201t106.5 -243h-211q-45 149 -74.5 259.5t-46.5 185.5q-20 87 -31 149h-203 q0 -70 1.5 -144.5t3.5 -150t5 -151.5t7 -148h-187zM270 705h146q45 0 80 14t59.5 46t37.5 83.5t13 126.5q0 152 -47.5 219.5t-142.5 67.5h-134q-7 -143 -9.5 -286.5t-2.5 -270.5z" />
<glyph unicode="S" horiz-adv-x="765" d="M45 1061q0 95 35 160t89 104.5t119.5 56.5t127.5 17q65 0 125.5 -10.5t116.5 -22.5v-199q-32 27 -60.5 49t-57 37.5t-58.5 24t-64 8.5q-42 0 -79.5 -11.5t-65 -35.5t-44 -61t-16.5 -88q0 -71 37 -129.5t93 -111.5t121 -106t121 -114t93 -133.5t37 -165.5 q0 -70 -16 -123.5t-43.5 -93t-63.5 -66.5t-77 -43.5t-84.5 -23.5t-84.5 -7q-49 0 -90 3.5t-76.5 10t-66 15t-59.5 18.5v205q31 -29 62 -54.5t64.5 -44.5t70.5 -29.5t81 -10.5q40 0 78.5 12.5t68.5 40.5t48 71.5t18 106.5q0 54 -21.5 100t-56.5 88t-80 81.5t-92 79.5 t-92 82.5t-80 90t-56.5 102.5t-21.5 120z" />
<glyph unicode="T" horiz-adv-x="715" d="M15 1257v117h685v-117h-255q-8 -147 -10 -294t-2 -275q0 -77 1 -162t3 -173.5t5 -178t8 -174.5h-187q6 85 9.5 174.5t5.5 178t3 173.5t1 162q0 128 -2.5 275t-9.5 294h-255z" />
<glyph unicode="U" horiz-adv-x="960" d="M91 1374h188q-11 -164 -14.5 -324.5t-3.5 -312.5v-323q0 -74 13 -133.5t40 -100.5t68.5 -63t97.5 -22t97 22t68 63t40.5 100.5t13.5 133.5v323q0 152 -3.5 312.5t-14.5 324.5h188q-9 -165 -13.5 -326t-4.5 -311v-323q0 -104 -23 -186t-69 -139t-115.5 -87.5t-163.5 -30.5 t-163.5 30.5t-115.5 87.5t-69 139t-23 186v323q0 150 -4.5 311t-13.5 326z" />
<glyph unicode="V" horiz-adv-x="835" d="M6 1374h190q45 -300 95 -590.5t119 -581.5h14q69 291 119.5 581.5t95.5 590.5h190q-32 -122 -63 -250t-59 -255.5t-53.5 -251t-47 -236t-39.5 -209.5t-31 -172h-237q-13 75 -31 172t-39.5 209.5t-47 236t-53.5 251t-59 255.5t-63 250z" />
<glyph unicode="W" horiz-adv-x="1296" d="M18 1374h193q38 -300 77.5 -590.5t86.5 -581.5h14q23 145 43.5 290t39 291.5t36.5 294t37 296.5h206q37 -299 72.5 -591t82.5 -581h14q47 291 87 581.5t78 590.5h193q-27 -122 -53 -250t-49.5 -255.5t-44.5 -251t-38.5 -236t-32.5 -209.5t-25 -172h-237 q-5 52 -14.5 130.5t-21.5 174t-26 202t-28 214t-28 211t-25 191.5h-14q-12 -88 -25.5 -191.5t-27.5 -211t-28 -214t-26 -202t-21.5 -174t-14.5 -130.5h-237q-11 75 -25.5 172t-32 209.5t-38.5 236t-44.5 251t-49.5 255.5t-53 250z" />
<glyph unicode="X" horiz-adv-x="807" d="M10 0q91 189 171.5 356.5t152.5 328.5q-76 176 -154 346t-160 343h186q47 -143 95.5 -272t101.5 -256q54 127 102.5 256t95.5 272h186q-83 -173 -160.5 -343t-153.5 -346q71 -161 151.5 -328.5t172.5 -356.5h-185q-54 138 -105.5 266.5t-103.5 253.5 q-52 -125 -103.5 -253.5t-104.5 -266.5h-185z" />
<glyph unicode="Y" horiz-adv-x="744" d="M0 1374h186q43 -173 88.5 -325t94.5 -291h4q49 139 95 291t90 325h186q-35 -89 -70.5 -180.5t-72.5 -190t-74.5 -205t-77.5 -223.5q1 -148 5 -289.5t12 -285.5h-187q9 144 13.5 285.5t5.5 289.5q-40 117 -78 223.5t-75.5 205t-73.5 190t-71 180.5z" />
<glyph unicode="Z" horiz-adv-x="751" d="M40 0v10q121 303 232.5 620t204.5 627h-412v117h640v-10q-121 -303 -235 -620t-207 -627h448v-117h-671z" />
<glyph unicode="[" horiz-adv-x="606" d="M131 -121q4 57 6.5 124.5t5 140.5t4 148t2 146t1 135t0.5 115t-0.5 114.5t-1 133.5t-2 144t-4 146t-5 139t-6.5 124h425v-107h-251v-1396h251v-107h-425z" />
<glyph unicode="\" horiz-adv-x="500" d="M33 1415h120l314 -1456h-120z" />
<glyph unicode="]" horiz-adv-x="606" d="M50 -14h251v1396h-251v107h425q-4 -57 -6.5 -124t-5 -139t-4 -146t-2 -144t-1 -133.5t-0.5 -114.5t0.5 -115t1 -135t2 -146t4 -148t5 -140.5t6.5 -124.5h-425v107z" />
<glyph unicode="^" horiz-adv-x="750" d="M110 778l217 596h98l215 -596h-131l-133 434l-133 -434h-133z" />
<glyph unicode="_" horiz-adv-x="750" d="M0 -95h750v-155h-750v155z" />
<glyph unicode="`" horiz-adv-x="541" d="M39 1415h178l131 -276h-106z" />
<glyph unicode="a" horiz-adv-x="889" d="M50 364q0 121 37 207t109.5 146t180 97t248.5 60q0 121 -12.5 200t-36.5 125.5t-59.5 64.5t-81.5 18q-40 0 -80 -12.5t-79.5 -33.5t-79 -48.5t-77.5 -57.5v194q42 16 80 29.5t76.5 23.5t77.5 16t83 6q88 0 153.5 -24t109 -76t65 -134t21.5 -197q0 -11 -0.5 -37t-1 -61 t-1 -75t-1 -79t-1 -73.5t-0.5 -57.5q0 -53 1 -119.5t3.5 -141.5t6 -157t8.5 -167h-191l5 121q-24 -27 -49 -53.5t-56 -47t-70.5 -33t-93.5 -12.5q-62 0 -115.5 25.5t-93 74.5t-62.5 121.5t-23 167.5zM228 376q0 -63 11.5 -114t33.5 -86.5t52 -54.5t68 -19q43 0 75.5 15.5 t59 40t48.5 55t44 60.5q3 102 5 218.5t2 266.5q-127 -15 -205 -49t-121 -83.5t-58 -112.5t-15 -137z" />
<glyph unicode="b" horiz-adv-x="876" d="M100 0q6 85 9.5 174.5t5.5 178t3 173.5t1 162t-1 162t-3 173t-5.5 177t-9.5 174h338q80 0 145.5 -19.5t112.5 -60t72.5 -104.5t25.5 -152q0 -71 -15 -124t-40.5 -90t-58.5 -59.5t-70 -31.5q44 -8 85.5 -32.5t73.5 -68t51 -106.5t19 -147q0 -88 -19.5 -158t-62 -119 t-110 -75.5t-164.5 -26.5h-383zM270 670q0 -127 3 -269.5t8 -285.5h193q45 0 81 14.5t61 48.5t38 88.5t13 134.5q0 78 -14.5 129.5t-41 82.5t-63.5 44t-82 13h-196zM270 784h180q49 0 82.5 13t53.5 40.5t29 70.5t9 102q0 57 -8 103.5t-28 79t-53.5 50t-84.5 17.5h-168 q-6 -121 -8.5 -242.5t-3.5 -233.5z" />
<glyph unicode="c" horiz-adv-x="852" d="M68 686q0 181 39.5 314.5t107 221t158 130.5t192.5 43q69 0 125.5 -8.5t112.5 -22.5v-201q-23 19 -47 39.5t-51.5 37t-61.5 27.5t-78 11q-73 0 -132.5 -38.5t-102 -113.5t-65.5 -185.5t-23 -254.5t23 -254.5t65.5 -185.5t102 -113.5t132.5 -38.5q44 0 78 11t61.5 27.5 t51.5 37t47 39.5v-201q-56 -14 -112.5 -22.5t-125.5 -8.5q-107 0 -198 43t-157.5 130.5t-104 221t-37.5 314.5z" />
<glyph unicode="d" horiz-adv-x="964" d="M100 0q6 85 9.5 174.5t5.5 178t3 173.5t1 162t-1 162t-3 173t-5.5 177t-9.5 174h313q107 0 196 -33t152.5 -112.5t99 -211.5t35.5 -329q0 -198 -35.5 -330.5t-99.5 -212t-153 -112.5t-197 -33h-311zM270 688q0 -129 2 -277.5t9 -295.5h134q43 0 82.5 9.5t73 33.5 t61.5 65.5t47.5 105t30 152t10.5 207.5t-10.5 207.5t-30 152t-47.5 104.5t-61.5 65t-73 33.5t-82.5 9.5h-133q-7 -148 -9.5 -295.5t-2.5 -276.5z" />
<glyph unicode="e" horiz-adv-x="910" d="M68 682q0 160 26 292.5t76.5 226.5t125 146t172.5 52q101 0 173.5 -46.5t119 -135t68 -217.5t21.5 -295v-37h-604q6 -159 25.5 -269t55.5 -179t90.5 -99.5t129.5 -30.5q44 0 79.5 11t65.5 27.5t55 37t48 39.5v-197q-26 -5 -52.5 -11t-59 -11t-72.5 -9t-92 -4 q-105 0 -188.5 48.5t-142 140t-89.5 223t-31 297.5zM248 784h430q-2 58 -6 118t-12.5 116t-23 105t-37.5 85t-56 57t-78 21q-60 0 -99.5 -44t-64 -115t-36.5 -161t-17 -182z" />
<glyph unicode="f" horiz-adv-x="732" d="M101 0q9 165 13.5 326t4.5 311v319q0 104 26 186t78 139t129 87.5t178 30.5q20 0 45 -1.5t50 -4t48 -6.5t39 -10v-158q-13 13 -34.5 23.5t-47 18t-52 11t-48.5 3.5q-64 0 -112.5 -22t-81 -63.5t-49 -100.5t-16.5 -133v-165h390v-117h-390v-37q0 -152 3.5 -312.5 t14.5 -324.5h-188z" />
<glyph unicode="g" horiz-adv-x="946" d="M68 686q0 181 39.5 314.5t107.5 221t158.5 130.5t192.5 43q42 0 76 -3.5t63.5 -9.5t55.5 -15t51 -19v-202q-65 73 -122.5 102.5t-124.5 29.5q-77 0 -137 -42.5t-101.5 -120.5t-63 -186.5t-21.5 -240.5q0 -128 20 -236.5t60 -188t100.5 -124.5t141.5 -45q35 0 61.5 5.5 t52.5 19.5q1 22 2 51q1 25 2 60.5t1 82.5q0 51 -1.5 113t-5.5 134h-182v116h364q-4 -82 -5.5 -161t-1.5 -151t0.5 -131.5t2.5 -102.5q2 -51 4 -91q-51 -26 -124 -44t-177 -18t-193 43t-155 130.5t-103.5 221t-37.5 314.5z" />
<glyph unicode="h" horiz-adv-x="953" d="M100 0q6 85 9.5 174.5t5.5 178t3 173.5t1 162t-1 162t-3 173t-5.5 177t-9.5 174h189q-10 -140 -13.5 -286.5t-5.5 -282.5h411q-1 136 -5 282.5t-12 286.5h188q-5 -85 -8.5 -174t-5.5 -177t-3 -173t-1 -162t1 -162t3 -173.5t4.5 -178t7.5 -174.5h-186q5 85 8.5 174.5 t5.5 178t3 173.5t1 162h-412q0 -77 1 -162t3 -173.5t5 -178t8 -174.5h-187z" />
<glyph unicode="i" horiz-adv-x="401" d="M106 0q6 85 9.5 174.5t5.5 178t3 173.5t1 162t-1 162t-3 173t-5.5 177t-9.5 174h189q-6 -85 -9.5 -174t-5.5 -177t-3 -173t-1 -162t1 -162t3 -173.5t5 -178t8 -174.5h-187z" />
<glyph unicode="j" horiz-adv-x="571" d="M20 -16v137q10 -3 38 -11t71 -8q31 0 59 9t50 33t38 66t24 108q8 64 8.5 168t0.5 244q0 152 -3.5 316t-14.5 328h188q-5 -82 -8 -161t-5.5 -151t-3.5 -134.5t-1 -112.5q0 -56 0.5 -116t1.5 -114t1.5 -96.5t0.5 -63.5q0 -107 -21 -191t-64 -142t-109.5 -88t-157.5 -30 q-29 0 -56.5 4t-36.5 6z" />
<glyph unicode="k" horiz-adv-x="834" d="M100 0q6 85 9.5 174.5t5.5 178t3 173.5t1 162t-1 162t-3 173t-5.5 177t-9.5 174h189q-9 -139 -13 -284t-6 -280q36 53 75 117t80.5 136t83.5 150.5t83 160.5h208q-44 -60 -95 -133t-103 -150t-103 -155t-96 -147q42 -98 90 -197.5t103.5 -198.5t119.5 -197.5t138 -195.5 h-211q-25 38 -54 88.5t-59.5 108t-61.5 119.5t-60.5 122.5t-55.5 117t-47 103.5l-35 -59q0 -69 1.5 -144.5t3.5 -153.5t5 -155t7 -147h-187z" />
<glyph unicode="l" horiz-adv-x="696" d="M100 0q6 85 9.5 174.5t5.5 178t3 173.5t1 162t-1 162t-3 173t-5.5 177t-9.5 174h189q-6 -85 -9.5 -174t-5.5 -177t-3 -173t-1 -162q0 -129 2 -276.5t9 -294.5h405v-117h-586z" />
<glyph unicode="m" horiz-adv-x="1382" d="M100 0q5 89 8.5 170.5t6 162.5t3.5 165t1 177t-1 180.5t-3.5 173t-6 171t-8.5 174.5h186l-5 -84q54 48 116.5 78.5t122.5 30.5q75 0 129.5 -38.5t84.5 -115.5q30 32 64.5 60t71 49t75 33t75.5 12q119 0 184.5 -94.5t65.5 -281.5q0 -46 -0.5 -98.5t-1.5 -103t-1.5 -93.5 t-0.5 -70q0 -93 1 -174t3 -159t5.5 -157t8.5 -168h-184q5 89 9 168t7 157q4 78 4 159v55q0 57 -1 119q-2 156 -6.5 272.5t-19 193t-42.5 114.5t-77 38q-20 0 -46 -10.5t-54.5 -28t-58 -41.5t-54.5 -51q9 -56 9 -122q0 -46 -0.5 -98.5t-1.5 -103t-1.5 -93.5t-0.5 -70 q0 -93 1 -174t3 -159t5.5 -157t8.5 -168h-184q5 89 9 168t7 157q4 78 4 159v55q0 57 -1 119q-2 156 -6.5 272.5t-19 193t-42.5 114.5t-77 38q-18 0 -42.5 -9t-51 -24.5t-53.5 -37t-52 -45.5q-5 -121 -7 -240.5t-2 -244.5q0 -93 1 -177t3 -165t6 -162.5t9 -170.5h-185z" />
<glyph unicode="n" horiz-adv-x="948" d="M100 0q5 89 8.5 170.5t6 162.5t3.5 165t1 177t-1 180.5t-3.5 173t-6 171t-8.5 174.5h186l-9 -155q30 36 67 68.5t77 57.5t82 39.5t83 14.5q119 0 184.5 -94.5t65.5 -281.5q0 -46 -0.5 -98.5t-1.5 -103t-1.5 -93.5t-0.5 -70q0 -93 1 -174t3 -159t5.5 -157t8.5 -168h-184 q5 89 9 168t7 157q4 78 4 159v55q0 57 -1 119q-2 156 -6.5 272.5t-19 193t-42.5 114.5t-77 38q-26 0 -62.5 -17t-74.5 -45.5t-73 -64.5t-58 -73q-6 -198 -6 -401q0 -93 1 -177t3 -165t6 -162.5t9 -170.5h-185z" />
<glyph unicode="o" d="M68 686q0 184 33.5 318.5t92 222.5t137.5 130t171 42q91 0 170 -42t137.5 -130t91.5 -222.5t33 -318.5q0 -185 -33 -319.5t-91.5 -222t-137.5 -129.5t-170 -42q-92 0 -171 42t-137.5 129.5t-92 222t-33.5 319.5zM240 686q0 -155 20 -267t55.5 -184t83 -106.5t103.5 -34.5 q55 0 102.5 34.5t82.5 106.5t55 184t20 267q0 154 -20 266t-55 184.5t-82.5 107t-102.5 34.5q-56 0 -103.5 -34.5t-83 -107t-55.5 -184.5t-20 -266z" />
<glyph unicode="p" horiz-adv-x="838" d="M100 0q6 85 9.5 174.5t5.5 178t3 173.5t1 162t-1 162t-3 173t-5.5 177t-9.5 174h334q84 0 150 -28.5t111.5 -83.5t69 -134t23.5 -179q0 -43 -8 -91.5t-26 -95.5t-46 -90.5t-68.5 -76.5t-94 -52.5t-121.5 -19.5h-154q2 -128 5.5 -261.5t11.5 -261.5h-187zM270 634h154 q90 0 140 82.5t50 232.5q0 153 -47 233t-143 80h-142q-7 -148 -9.5 -296t-2.5 -278v-54z" />
<glyph unicode="q" d="M68 686q0 184 33.5 318.5t92 222.5t137.5 130t171 42q91 0 170 -42t137.5 -130t91.5 -222.5t33 -318.5q0 -220 -46 -367.5t-125 -232.5q38 -17 72.5 -28t60.5 -19q31 -9 58 -14l-80 -140q-51 17 -105 49.5t-111 73.5q-73 -35 -156 -35q-92 0 -171 42t-137.5 129.5 t-92 222t-33.5 319.5zM240 686q0 -155 20 -267t55.5 -184t83 -106.5t103.5 -34.5q55 0 102.5 34.5t82.5 106.5t55 184t20 267q0 154 -20 266t-55 184.5t-82.5 107t-102.5 34.5q-56 0 -103.5 -34.5t-83 -107t-55.5 -184.5t-20 -266z" />
<glyph unicode="r" horiz-adv-x="666" d="M100 0q5 89 8.5 170.5t6 162.5t3.5 165t1 177t-1 180.5t-3.5 173t-6 171t-8.5 174.5h186q-3 -47 -5.5 -84t-4.5 -83q32 37 78.5 72t97.5 61.5t102 42.5t92 16v-184q-132 0 -230 -37t-144 -112q-6 -194 -6 -391q0 -93 1 -177t3 -165t6 -162.5t9 -170.5h-185z" />
<glyph unicode="s" horiz-adv-x="765" d="M45 1061q0 95 35 160t89 104.5t119.5 56.5t127.5 17q65 0 125.5 -10.5t116.5 -22.5v-199q-32 27 -60.5 49t-57 37.5t-58.5 24t-64 8.5q-42 0 -79.5 -11.5t-65 -35.5t-44 -61t-16.5 -88q0 -71 37 -129.5t93 -111.5t121 -106t121 -114t93 -133.5t37 -165.5 q0 -70 -16 -123.5t-43.5 -93t-63.5 -66.5t-77 -43.5t-84.5 -23.5t-84.5 -7q-49 0 -90 3.5t-76.5 10t-66 15t-59.5 18.5v205q31 -29 62 -54.5t64.5 -44.5t70.5 -29.5t81 -10.5q40 0 78.5 12.5t68.5 40.5t48 71.5t18 106.5q0 54 -21.5 100t-56.5 88t-80 81.5t-92 79.5 t-92 82.5t-80 90t-56.5 102.5t-21.5 120z" />
<glyph unicode="t" horiz-adv-x="715" d="M15 1257v117h685v-117h-255q-8 -147 -10 -294t-2 -275q0 -77 1 -162t3 -173.5t5 -178t8 -174.5h-187q6 85 9.5 174.5t5.5 178t3 173.5t1 162q0 128 -2.5 275t-9.5 294h-255z" />
<glyph unicode="u" horiz-adv-x="948" d="M98 1374h184q-5 -89 -9 -168t-6.5 -157t-3.5 -159q0 -40 -0.5 -84t0.5 -90q1 -73 2 -139.5t3 -125t5 -106.5t8 -83q13 -87 50 -125.5t95 -38.5q33 0 68 17t67.5 45t62 64t52.5 74q6 198 6 401q0 93 -1 177t-3.5 165t-6 162.5t-8.5 170.5h185q-5 -89 -8.5 -170.5 t-6 -162.5t-3.5 -165t-1 -177t1 -180.5t3.5 -173t6 -171t8.5 -174.5h-186q2 39 4 77.5t4 76.5q-29 -36 -61.5 -68.5t-70.5 -57t-81.5 -39t-94.5 -14.5q-119 0 -184.5 94.5t-65.5 281.5q0 46 0.5 98.5t1.5 103t1.5 93.5t0.5 70q0 93 -1 174t-3 159t-5.5 157t-8.5 168z" />
<glyph unicode="v" horiz-adv-x="835" d="M6 1374h190q45 -300 95 -590.5t119 -581.5h14q69 291 119.5 581.5t95.5 590.5h190q-32 -122 -63 -250t-59 -255.5t-53.5 -251t-47 -236t-39.5 -209.5t-31 -172h-237q-13 75 -31 172t-39.5 209.5t-47 236t-53.5 251t-59 255.5t-63 250z" />
<glyph unicode="w" horiz-adv-x="1296" d="M18 1374h193q38 -300 77.5 -590.5t86.5 -581.5h14q23 145 43.5 290t39 291.5t36.5 294t37 296.5h206q37 -299 72.5 -591t82.5 -581h14q47 291 87 581.5t78 590.5h193q-27 -122 -53 -250t-49.5 -255.5t-44.5 -251t-38.5 -236t-32.5 -209.5t-25 -172h-237 q-5 52 -14.5 130.5t-21.5 174t-26 202t-28 214t-28 211t-25 191.5h-14q-12 -88 -25.5 -191.5t-27.5 -211t-28 -214t-26 -202t-21.5 -174t-14.5 -130.5h-237q-11 75 -25.5 172t-32 209.5t-38.5 236t-44.5 251t-49.5 255.5t-53 250z" />
<glyph unicode="x" horiz-adv-x="807" d="M10 0q91 189 171.5 356.5t152.5 328.5q-76 176 -154 346t-160 343h186q47 -143 95.5 -272t101.5 -256q54 127 102.5 256t95.5 272h186q-83 -173 -160.5 -343t-153.5 -346q71 -161 151.5 -328.5t172.5 -356.5h-185q-54 138 -105.5 266.5t-103.5 253.5 q-52 -125 -103.5 -253.5t-104.5 -266.5h-185z" />
<glyph unicode="y" horiz-adv-x="821" d="M10 1374h186q19 -77 48 -173t61.5 -195t64.5 -193.5t58 -169.5q33 109 65 218t59 206.5t47.5 177t31.5 129.5h186q-33 -98 -77 -228t-93.5 -281.5t-101.5 -318t-101 -335.5q-35 -120 -101.5 -179t-179.5 -59q-45 0 -80 4.5t-44 6.5v142q5 -2 16.5 -5t27 -6t33.5 -5.5 t35 -2.5q58 0 91.5 36.5t60.5 112.5q14 41 29 85.5t31 93.5q-26 77 -56.5 161t-62.5 169.5t-64 170t-62.5 163.5t-58 149z" />
<glyph unicode="z" horiz-adv-x="751" d="M40 0v10q121 303 232.5 620t204.5 627h-412v117h640v-10q-121 -303 -235 -620t-207 -627h448v-117h-671z" />
<glyph unicode="{" horiz-adv-x="707" d="M50 635v102h39q64 0 99 19.5t51 47t18.5 57t2.5 50.5q0 40 -6.5 76.5t-14 73t-13.5 75t-6 82.5q0 130 104 200.5t323 70.5v-107q-76 0 -126.5 -8.5t-80.5 -28.5t-42.5 -55t-12.5 -87q0 -44 6 -83.5t13.5 -77.5t14 -76t6.5 -78q0 -80 -46 -133.5t-154 -68.5q54 -5 92 -23 t62 -45.5t35 -62.5t11 -75q0 -41 -6.5 -78.5t-14 -75.5t-13.5 -77.5t-6 -83.5q0 -53 12.5 -87.5t42.5 -54.5t80.5 -28.5t126.5 -8.5v-107q-219 0 -323 70.5t-104 200.5q0 43 6 81.5t13.5 75.5t14 73.5t6.5 76.5q0 21 -2.5 51t-18.5 58.5t-51 48.5t-99 20h-39z" />
<glyph unicode="|" horiz-adv-x="512" d="M185 -483v2048h142v-2048h-142z" />
<glyph unicode="}" horiz-adv-x="707" d="M60 -14q76 0 126.5 8.5t80.5 28.5t42.5 54.5t12.5 87.5q0 44 -6.5 83.5t-14 77.5t-13.5 75.5t-6 78.5q0 40 11 75t35 62.5t62 45.5t92 23q-108 15 -154 68.5t-46 133.5q0 40 6 78t13.5 76t14 77.5t6.5 83.5q0 52 -12.5 87t-42.5 55t-80.5 28.5t-126.5 8.5v107 q219 0 323 -70.5t104 -200.5q0 -44 -6.5 -82.5t-14 -75t-13.5 -73t-6 -76.5q0 -21 2.5 -50.5t18.5 -57t50.5 -47t99.5 -19.5h39v-102h-39q-65 0 -99.5 -20t-50.5 -48.5t-18.5 -58.5t-2.5 -51q0 -40 6 -76.5t13.5 -73.5t14 -75.5t6.5 -81.5q0 -130 -104 -200.5t-323 -70.5 v107z" />
<glyph unicode="~" horiz-adv-x="1124" d="M100 561v145q42 43 104 71.5t130 28.5q61 0 117.5 -17.5t112.5 -38t113.5 -38t121.5 -17.5q34 0 66.5 10t61 26.5t53 37t44.5 41.5v-145q-42 -42 -98.5 -71.5t-136.5 -29.5q-62 0 -118 17.5t-111.5 38t-112.5 38t-121 17.5q-35 0 -67.5 -10.5t-61 -27t-53.5 -36.5 t-44 -40z" />
<glyph unicode="&#xa1;" horiz-adv-x="412" d="M101 0q11 170 25 401t14 535v102h132v-102q0 -304 14 -535t25 -401h-210zM102 1295q0 44 30 74t74 30q21 0 40 -8t33.5 -22t22.5 -33t8 -41q0 -21 -8 -40t-22.5 -33.5t-33.5 -22.5t-40 -8q-22 0 -41 8t-33 22.5t-22 33.5t-8 40z" />
<glyph unicode="&#xa2;" horiz-adv-x="877" d="M76 699q0 144 32.5 253.5t90 185.5t135 119t167.5 54v160h92v-155q61 -2 112 -9t102 -18v-187q-22 15 -44 31.5t-47 30.5t-55 24t-68 13v-1004q38 3 68 13t55 24t47 30.5t44 31.5v-187q-51 -11 -102 -18.5t-112 -8.5v-179h-92v183q-94 11 -172 54t-134.5 119t-87.5 185.5 t-31 254.5zM246 699q0 -220 69 -344t186 -152v991q-117 -27 -186 -151.5t-69 -343.5z" />
<glyph unicode="&#xa3;" horiz-adv-x="790" d="M60 656v112h116q1 48 1.5 95.5t0.5 98.5q0 111 23.5 193.5t67 136.5t105 80.5t137.5 26.5q64 0 115 -8.5t84 -18.5v-169q-21 15 -40.5 28.5t-41 24t-45.5 16.5t-54 6q-102 0 -151 -86.5t-49 -273.5q0 -31 -0.5 -68.5t-0.5 -81.5h189v-112h-191q-1 -66 -2.5 -135.5 t-3.5 -138.5t-4 -135t-4 -124h428v-123h-621q25 125 37.5 290.5t17.5 365.5h-114z" />
<glyph unicode="&#xa4;" horiz-adv-x="846" d="M80 523l113 112q-20 34 -31.5 71t-11.5 79q0 38 11.5 76.5t31.5 72.5l-113 115l80 80l115 -115q32 20 69.5 31.5t77.5 11.5q42 0 79 -11.5t69 -31.5l114 115l82 -80l-117 -115q22 -34 35 -71.5t13 -77.5q0 -42 -13 -79t-33 -71l115 -112l-82 -82l-114 113 q-31 -19 -69.5 -30t-78.5 -11t-77.5 11t-69.5 30l-113 -113zM258 785q0 -34 13 -63.5t35.5 -52t52 -35.5t63.5 -13t64 12.5t52.5 35t36 52t13.5 64.5q0 34 -13.5 64t-36 52.5t-52.5 36t-64 13.5q-35 0 -64.5 -13.5t-52 -36t-35 -52.5t-12.5 -64z" />
<glyph unicode="&#xa5;" horiz-adv-x="804" d="M32 1374h184q43 -173 88.5 -325t94.5 -291h4q49 139 95 291t90 325h184q-66 -165 -133.5 -344t-140.5 -391h164v-112h-185q0 -30 0.5 -59.5t1.5 -58.5h183v-112h-181q2 -75 5 -148.5t8 -148.5h-183q5 75 8.5 148.5t5.5 148.5h-180v112h183l2 118h-185v112h163 q-73 212 -142 391t-134 344z" />
<glyph unicode="&#xa6;" horiz-adv-x="512" d="M185 -352v758h142v-758h-142zM185 672v758h142v-758h-142z" />
<glyph unicode="&#xa7;" horiz-adv-x="836" d="M100 786q0 79 39.5 131.5t103.5 86.5q-42 33 -67 75t-25 102q0 55 22 96t60 68t89 40.5t109 13.5q57 0 113 -8.5t116 -25.5v-134q-28 15 -53.5 29.5t-52.5 25.5t-56.5 17.5t-63.5 6.5q-42 0 -71.5 -9.5t-48 -26t-27.5 -38.5t-9 -47q0 -44 34 -77.5t85 -63t110 -59 t110 -66t85 -83t34 -110.5q0 -80 -39 -132.5t-102 -85.5q42 -34 67 -76.5t25 -99.5q0 -56 -23 -97t-63 -68t-93.5 -40.5t-114.5 -13.5q-69 0 -127.5 10t-118.5 30v136q27 -17 53.5 -33t55 -28t61.5 -19t73 -7q45 0 77 9.5t52.5 26t30 39.5t9.5 49q0 44 -34 77t-85 62 t-110.5 58.5t-110.5 65.5t-85 82.5t-34 110.5zM226 811q0 -46 28 -80.5t72 -63.5t97.5 -55t103.5 -54q35 20 59.5 58.5t24.5 89.5q0 45 -28 79t-72 62.5t-97 55t-104 55.5q-33 -20 -58.5 -58t-25.5 -89z" />
<glyph unicode="&#xa8;" horiz-adv-x="541" d="M71 1240q0 34 23.5 57.5t57.5 23.5t57.5 -23.5t23.5 -57.5t-23.5 -57.5t-57.5 -23.5t-57.5 23.5t-23.5 57.5zM308 1240q0 34 23.5 57.5t57.5 23.5t57.5 -23.5t23.5 -57.5t-23.5 -57.5t-57.5 -23.5t-57.5 23.5t-23.5 57.5z" />
<glyph unicode="&#xa9;" horiz-adv-x="1443" d="M100 688q0 128 49 241t133.5 197.5t197.5 133.5t241 49q86 0 165.5 -22.5t148.5 -63t126 -97t97.5 -125.5t62.5 -148.5t22 -164.5q0 -86 -22 -165t-62.5 -148t-97.5 -125.5t-126 -97t-148.5 -62.5t-165.5 -22q-128 0 -241 49t-197.5 133t-133.5 197t-49 241zM217 688 q0 -105 39.5 -197t108 -161t160 -108.5t196.5 -39.5t197 39.5t161 108.5t108.5 161t39.5 197t-39.5 197.5t-108.5 161t-161 108t-197 39.5t-196.5 -39.5t-160 -108t-108 -161t-39.5 -197.5zM366 686q0 88 28 157.5t77.5 118t116.5 74t145 25.5q40 0 71 -5t59 -13t55 -19.5 t59 -24.5v-140q-32 29 -59.5 49.5t-54 33.5t-54 19t-60.5 6q-54 0 -97 -21t-73 -58.5t-46 -89t-16 -112.5q0 -60 16 -111t46 -88t73 -58t97 -21q33 0 60.5 6t54 18.5t54 32.5t59.5 48v-138q-32 -14 -59 -25t-55 -19t-59 -12.5t-71 -4.5q-78 0 -145 25.5t-116.5 73.5 t-77.5 117t-28 156z" />
<glyph unicode="&#xaa;" horiz-adv-x="535" d="M38 880q0 60 19 102.5t58.5 72t101 48t145.5 29.5q0 53 -4.5 89t-15.5 58.5t-29.5 32.5t-46.5 10q-48 0 -95.5 -21.5t-93.5 -58.5v116q25 8 48 14.5t46 11.5t46.5 8t49.5 3q105 0 156.5 -49.5t51.5 -163.5q0 -8 -0.5 -32.5t-1 -53.5l-1 -58t-0.5 -46q0 -53 1.5 -129 t9.5 -161h-131l3 55q-29 -27 -63.5 -47t-79.5 -20q-37 0 -68.5 12t-55 36t-37 59.5t-13.5 82.5zM53 475v98h422v-98h-422zM156 889q0 -32 7.5 -54.5t20 -37t28 -21.5t32.5 -7q36 0 62.5 22.5t52.5 52.5q2 50 3.5 101t1.5 125q-114 -16 -161 -62t-47 -119z" />
<glyph unicode="&#xab;" horiz-adv-x="760" d="M60 685l228 383l116 -75l-199 -308l199 -310l-116 -75zM370 685l228 383l116 -75l-199 -308l199 -310l-116 -75z" />
<glyph unicode="&#xac;" horiz-adv-x="1124" d="M170 761v122h784v-389h-122v267h-662z" />
<glyph unicode="&#xad;" horiz-adv-x="610" d="M120 616v141h370v-141h-370z" />
<glyph unicode="&#xae;" horiz-adv-x="993" d="M80 983q0 87 33 162.5t89.5 132t132 89t161.5 32.5t162 -32.5t132.5 -89t89.5 -132t33 -162.5q0 -86 -33 -162t-89.5 -132.5t-132.5 -89.5t-162 -33t-161.5 33t-132 89.5t-89.5 132.5t-33 162zM170 983q0 -68 25.5 -127.5t69.5 -104t103.5 -70t127.5 -25.5 q69 0 128.5 25.5t103.5 70t69.5 104t25.5 127.5t-25.5 128t-69.5 104.5t-103.5 70t-128.5 25.5q-68 0 -127.5 -25.5t-103.5 -70t-69.5 -104.5t-25.5 -128zM352 750q4 58 5 121.5t1 116.5q0 52 -1 115t-5 120h174q59 0 98 -34.5t39 -104.5q0 -45 -16.5 -78.5t-45.5 -50.5 q1 -5 7 -22.5t17 -44.5t27.5 -62.5t39.5 -75.5h-101q-15 38 -27 73t-20 61q-10 31 -16 57h-91q0 -47 2 -95l4 -96h-91zM437 1007h63q14 0 27 3t22.5 11.5t15 23.5t5.5 39t-5 39t-14.5 22.5t-22.5 10t-28 2.5h-58q-2 -24 -2.5 -42.5t-1.5 -35.5t-1 -34.5v-38.5z" />
<glyph unicode="&#xaf;" horiz-adv-x="541" d="M100 1169v117h341v-117h-341z" />
<glyph unicode="&#xb0;" horiz-adv-x="542" d="M60 1188q0 43 16.5 81.5t45 67t67 45.5t82.5 17q43 0 81.5 -17t67 -45.5t45.5 -67t17 -81.5q0 -44 -17 -82.5t-45.5 -67t-67 -45t-81.5 -16.5q-44 0 -82.5 16.5t-67 45t-45 67t-16.5 82.5zM166 1188q0 -45 30 -75t75 -30q21 0 40 8t33.5 22.5t23 33.5t8.5 41 q0 21 -8.5 40t-23 33.5t-33.5 23t-40 8.5q-22 0 -41 -8.5t-33.5 -23t-22.5 -33.5t-8 -40z" />
<glyph unicode="&#xb1;" horiz-adv-x="1124" d="M150 156v122h824v-122h-824zM150 694v122h351v314h122v-314h351v-122h-351v-315h-122v315h-351z" />
<glyph unicode="&#xb2;" horiz-adv-x="549" d="M50 508v86q87 89 145.5 157.5t93.5 128.5t49 118t13 126q-2 88 -39 128.5t-90 40.5q-37 0 -79.5 -17t-88.5 -59v124q48 30 96.5 39t89.5 9q49 0 94 -15t79 -46.5t54 -79.5t20 -114q0 -71 -19.5 -136t-58 -129t-94.5 -129t-129 -135q66 0 125 1q25 0 51 0.5t50 1.5t44 1.5 t33 2.5v-104h-439z" />
<glyph unicode="&#xb3;" horiz-adv-x="573" d="M50 530v126q22 -17 42.5 -31t41.5 -23.5t44 -15t50 -5.5q69 0 110.5 42.5t41.5 117.5q0 37 -12 71t-37.5 59.5t-65.5 40.5t-95 15v92q51 0 87 14t58.5 35.5t33 49t10.5 54.5q0 25 -9 47.5t-25.5 39.5t-40.5 26.5t-54 9.5q-37 0 -77.5 -14.5t-85.5 -50.5v121q48 20 91 29 t94 9q48 0 91 -13t76 -39t52 -65.5t19 -91.5q0 -35 -13 -66.5t-35.5 -57.5t-53 -46.5t-65.5 -33.5q36 -11 70 -30.5t61 -48.5t43 -68t16 -88q0 -63 -21.5 -110.5t-59 -79.5t-88 -48t-107.5 -16q-53 0 -99.5 11.5t-87.5 31.5z" />
<glyph unicode="&#xb4;" horiz-adv-x="541" d="M234 1139l131 276h178l-203 -276h-106z" />
<glyph unicode="&#xb5;" horiz-adv-x="884" d="M-60 -410q18 75 38.5 165t41 188.5t41 201.5t39.5 203t36 193.5t31 173.5t24 142.5t15 100.5h176q-11 -38 -22.5 -89.5t-24 -110t-25 -120t-24.5 -120.5q-27 -138 -55 -288q0 -73 29 -105t77 -32q23 0 52.5 14t60 36t58.5 49t48 54q29 159 55 299q11 60 21.5 121 t19.5 116.5t16 101t10 74.5h176q-35 -142 -64 -286.5t-51 -273.5t-36.5 -233t-18.5 -165h-172l21 121q-23 -29 -49.5 -55t-55 -45.5t-57 -31.5t-55.5 -12t-46.5 9.5t-33 23t-22.5 29.5t-16 29l-88 -478h-170z" />
<glyph unicode="&#xb6;" horiz-adv-x="911" d="M80 983q0 104 26.5 178t75 121.5t116.5 69.5t151 22h312v-1374h-90v1303h-132v-1303h-90v592q-83 0 -151 22.5t-116.5 69.5t-75 121t-26.5 178z" />
<glyph unicode="&#xb7;" horiz-adv-x="308" d="M50 686q0 21 8 40t22 33.5t33 22.5t41 8q21 0 40 -8t33.5 -22.5t22.5 -33.5t8 -40q0 -22 -8 -41t-22.5 -33t-33.5 -22t-40 -8q-44 0 -74 30t-30 74z" />
<glyph unicode="&#xb8;" horiz-adv-x="541" d="M137 -232q19 -18 42.5 -30t52.5 -12q37 0 53 21t16 45q0 76 -121 76l43 162h93l-35 -107q24 -4 45.5 -15t37.5 -28.5t25.5 -41.5t9.5 -54q0 -36 -12 -63t-32.5 -45t-48 -27t-58.5 -9q-34 0 -62.5 6t-48.5 12v110z" />
<glyph unicode="&#xb9;" horiz-adv-x="336" d="M15 1298v74l231 27q-4 -54 -6 -113.5t-3.5 -118.5t-2 -115.5t-0.5 -105.5t0.5 -103t1.5 -110.5t3.5 -113.5t5.5 -111h-145q4 54 6.5 111t4 113.5t2 110.5t0.5 103t-1 103t-2.5 103.5t-3 90t-2.5 62.5z" />
<glyph unicode="&#xba;" horiz-adv-x="561" d="M38 1040q0 91 18.5 158t51.5 110t77.5 64t95.5 21t95.5 -21t77 -64t51 -110t18.5 -158q0 -92 -18.5 -158.5t-51 -110t-77 -64.5t-95.5 -21t-95.5 21t-77.5 64.5t-51.5 110t-18.5 158.5zM63 475v98h439v-98h-439zM156 1040q0 -73 9.5 -125t26 -85t39.5 -48.5t50 -15.5 t49.5 15.5t39 48.5t26 85t9.5 125t-9.5 124.5t-26 84.5t-39 48.5t-49.5 15.5t-50 -15.5t-39.5 -48.5t-26 -84.5t-9.5 -124.5z" />
<glyph unicode="&#xbb;" horiz-adv-x="760" d="M46 375l199 310l-199 308l116 75l228 -383l-228 -385zM356 375l199 310l-199 308l116 75l228 -383l-228 -385z" />
<glyph unicode="&#xbc;" horiz-adv-x="938" d="M30 1314v62l205 23q-3 -46 -5 -96t-3 -99.5t-1.5 -97.5t-0.5 -89q0 -83 2 -181.5t7 -190.5h-132q6 92 8.5 190.5t2.5 181.5q0 42 -1 87.5t-2 87t-2.5 75.5t-2.5 53zM67 0l581 1374h109l-581 -1374h-109zM426 179v93q42 88 86 169.5t79 145.5q41 75 81 142h143 q-6 -91 -8 -186.5t-2 -177.5v-101h93v-85h-92q2 -48 3.5 -90t4.5 -89h-132q3 47 5 89t4 90h-265zM513 264h179q1 29 1 52v49q0 56 -1 114t-3 122q-54 -94 -97.5 -182t-78.5 -155z" />
<glyph unicode="&#xbd;" horiz-adv-x="961" d="M30 1314v62l205 23q-3 -46 -5 -96t-3 -99.5t-1.5 -97.5t-0.5 -89q0 -83 2 -181.5t7 -190.5h-132q6 92 8.5 190.5t2.5 181.5q0 42 -1 87.5t-2 87t-2.5 75.5t-2.5 53zM67 0l581 1374h109l-581 -1374h-109zM529 0v76q75 75 126 133t81 109t42 98.5t11 100.5q-2 65 -34 99 t-80 34q-32 0 -67.5 -14.5t-75.5 -49.5v116q42 26 84 33.5t77 7.5q43 0 82 -14t69 -42t47.5 -69.5t17.5 -96.5q0 -58 -16 -111t-47.5 -105.5t-79 -106t-110.5 -113.5q56 0 105 1q21 0 43 0.5t42 1t37 1.5t28 2v-91h-382z" />
<glyph unicode="&#xbe;" horiz-adv-x="1049" d="M30 666v114q35 -28 67.5 -45t74.5 -17q55 0 87 33.5t32 95.5q0 31 -9 58t-29 47.5t-51.5 32t-75.5 11.5v83q41 0 69 10.5t45.5 27.5t25.5 38.5t8 44.5q0 43 -26 70.5t-75 27.5q-29 0 -61.5 -12t-67.5 -42v110q38 17 73.5 24t75.5 7q38 0 73 -11t62 -32.5t43 -54.5t16 -77 q0 -29 -10.5 -55t-28.5 -47.5t-42 -38t-52 -27.5q28 -9 55.5 -26t48.5 -41.5t34 -57.5t13 -74q0 -53 -18 -92.5t-49 -66t-72 -40t-87 -13.5q-42 0 -79.5 9t-69.5 26zM178 0l581 1374h109l-581 -1374h-109zM537 179v93q42 88 86 169.5t79 145.5q41 75 81 142h143 q-6 -91 -8 -186.5t-2 -177.5v-101h93v-85h-92q2 -48 3.5 -90t4.5 -89h-132q3 47 5 89t4 90h-265zM624 264h179q1 29 1 52v49q0 56 -1 114t-3 122q-54 -94 -97.5 -182t-78.5 -155z" />
<glyph unicode="&#xbf;" horiz-adv-x="670" d="M50 289q0 66 24.5 123t61 107.5t79 94.5t79 85t61 79.5t24.5 76.5q0 22 -8.5 39t-20.5 29t-25 20.5t-23 13.5l105 99q50 -36 82.5 -88t32.5 -107q0 -57 -22.5 -108.5t-56 -100t-73 -94t-73 -91t-56 -91.5t-22.5 -95q0 -48 13.5 -83.5t36.5 -59.5t54.5 -36t67.5 -12 q66 0 122 35t107 92v-190q-49 -22 -115 -38t-130 -16q-70 0 -129.5 22.5t-103 63.5t-68 99.5t-24.5 130.5zM297 1295q0 22 8 41t22.5 33t33.5 22t40 8q44 0 74 -30t30 -74q0 -21 -8 -40t-22 -33.5t-33 -22.5t-41 -8q-21 0 -40 8t-33.5 22.5t-22.5 33.5t-8 40z" />
<glyph unicode="&#xc0;" horiz-adv-x="835" d="M6 0q32 121 63 249.5t59 256t53.5 251t47 236t39.5 209.5t31 172h237q13 -75 31 -172t39.5 -209.5t47 -236t53.5 -251t59 -256t63 -249.5h-190q-14 96 -29 190l-30 188h-325q-16 -94 -30.5 -188t-28.5 -190h-190zM161 1777h178l131 -276h-106zM274 495h286 q-29 171 -62.5 339t-73.5 338h-14q-41 -170 -74 -338t-62 -339z" />
<glyph unicode="&#xc1;" horiz-adv-x="835" d="M6 0q32 121 63 249.5t59 256t53.5 251t47 236t39.5 209.5t31 172h237q13 -75 31 -172t39.5 -209.5t47 -236t53.5 -251t59 -256t63 -249.5h-190q-14 96 -29 190l-30 188h-325q-16 -94 -30.5 -188t-28.5 -190h-190zM274 495h286q-29 171 -62.5 339t-73.5 338h-14 q-41 -170 -74 -338t-62 -339zM360 1501l131 276h178l-203 -276h-106z" />
<glyph unicode="&#xc2;" horiz-adv-x="835" d="M6 0q32 121 63 249.5t59 256t53.5 251t47 236t39.5 209.5t31 172h237q13 -75 31 -172t39.5 -209.5t47 -236t53.5 -251t59 -256t63 -249.5h-190q-14 96 -29 190l-30 188h-325q-16 -94 -30.5 -188t-28.5 -190h-190zM219 1501l125 276h147l125 -276h-103l-96 165l-96 -165 h-102zM274 495h286q-29 171 -62.5 339t-73.5 338h-14q-41 -170 -74 -338t-62 -339z" />
<glyph unicode="&#xc3;" horiz-adv-x="835" d="M6 0q32 121 63 249.5t59 256t53.5 251t47 236t39.5 209.5t31 172h237q13 -75 31 -172t39.5 -209.5t47 -236t53.5 -251t59 -256t63 -249.5h-190q-14 96 -29 190l-30 188h-325q-16 -94 -30.5 -188t-28.5 -190h-190zM217 1509q0 26 2.5 64t13 73.5t32.5 60.5t60 25 q32 0 56.5 -17.5t44 -38t34.5 -38t29 -17.5q13 0 20 12.5t9.5 30t1.5 36.5t-4 32h100q0 -26 -2.5 -64.5t-13.5 -73.5t-32.5 -60t-60.5 -25q-32 0 -56.5 17.5t-43.5 38t-34.5 38t-28.5 17.5t-20 -13.5t-9.5 -31.5t-1.5 -36.5t4 -29.5h-100zM274 495h286q-29 171 -62.5 339 t-73.5 338h-14q-41 -170 -74 -338t-62 -339z" />
<glyph unicode="&#xc4;" horiz-adv-x="835" d="M6 0q32 121 63 249.5t59 256t53.5 251t47 236t39.5 209.5t31 172h237q13 -75 31 -172t39.5 -209.5t47 -236t53.5 -251t59 -256t63 -249.5h-190q-14 96 -29 190l-30 188h-325q-16 -94 -30.5 -188t-28.5 -190h-190zM217 1602q0 34 23.5 57.5t57.5 23.5t57.5 -23.5 t23.5 -57.5t-23.5 -57.5t-57.5 -23.5t-57.5 23.5t-23.5 57.5zM274 495h286q-29 171 -62.5 339t-73.5 338h-14q-41 -170 -74 -338t-62 -339zM454 1602q0 34 23.5 57.5t57.5 23.5t57.5 -23.5t23.5 -57.5t-23.5 -57.5t-57.5 -23.5t-57.5 23.5t-23.5 57.5z" />
<glyph unicode="&#xc5;" horiz-adv-x="835" d="M6 0q32 121 63 249.5t59 256t53.5 251t47 236t39.5 209.5t31 172h237q13 -75 31 -172t39.5 -209.5t47 -236t53.5 -251t59 -256t63 -249.5h-190q-14 96 -29 190l-30 188h-325q-16 -94 -30.5 -188t-28.5 -190h-190zM243 1646q0 36 13.5 67.5t37.5 55.5t55.5 37.5t67.5 13.5 t68 -13.5t55.5 -37.5t37 -55.5t13.5 -67.5t-13.5 -67.5t-37 -55.5t-55.5 -37.5t-68 -13.5t-67.5 13.5t-55.5 37.5t-37.5 55.5t-13.5 67.5zM274 495h286q-29 171 -62.5 339t-73.5 338h-14q-41 -170 -74 -338t-62 -339zM337 1646q0 -16 6.5 -30.5t17.5 -25.5t25.5 -17.5 t30.5 -6.5t30.5 6.5t25.5 17.5t17.5 25.5t6.5 30.5t-6.5 30.5t-17.5 25.5t-25.5 17.5t-30.5 6.5t-30.5 -6.5t-25.5 -17.5t-17.5 -25.5t-6.5 -30.5z" />
<glyph unicode="&#xc6;" horiz-adv-x="1155" d="M6 0q32 121 63 249.5t59 256t53.5 251t47 236t39.5 209.5t31 172h772v-117h-398q-6 -115 -8.5 -229.5t-3.5 -222.5h381v-117h-381q0 -129 2 -276.5t9 -294.5h405v-117h-586q6 92 9.5 187.5t5.5 190.5h-251q-16 -98 -30.5 -192.5t-28.5 -185.5h-190zM275 495h234 q1 51 1 99v94q0 128 -2.5 275t-9.5 293h-70q-42 -177 -80.5 -370.5t-72.5 -390.5z" />
<glyph unicode="&#xc7;" horiz-adv-x="852" d="M68 686q0 181 39.5 314.5t107 221t158 130.5t192.5 43q69 0 125.5 -8.5t112.5 -22.5v-201q-23 19 -47 39.5t-51.5 37t-61.5 27.5t-78 11q-73 0 -132.5 -38.5t-102 -113.5t-65.5 -185.5t-23 -254.5t23 -254.5t65.5 -185.5t102 -113.5t132.5 -38.5q44 0 78 11t61.5 27.5 t51.5 37t47 39.5v-201q-56 -14 -112.5 -22.5t-125.5 -8.5q-107 0 -198 43t-157.5 130.5t-104 221t-37.5 314.5zM400 -232q19 -18 42.5 -30t52.5 -12q37 0 53 21t16 45q0 76 -121 76l43 162h93l-35 -107q24 -4 45.5 -15t37.5 -28.5t25.5 -41.5t9.5 -54q0 -36 -12 -63 t-32.5 -45t-48 -27t-58.5 -9q-34 0 -62.5 6t-48.5 12v110z" />
<glyph unicode="&#xc8;" horiz-adv-x="764" d="M100 0q6 85 9.5 174.5t5.5 178t3 173.5t1 162t-1 162t-3 173t-5.5 177t-9.5 174h580v-117h-398q-6 -115 -8.5 -229.5t-3.5 -222.5h381v-117h-381q0 -129 2 -276.5t9 -294.5h405v-117h-586zM135 1777h178l131 -276h-106z" />
<glyph unicode="&#xc9;" horiz-adv-x="764" d="M100 0q6 85 9.5 174.5t5.5 178t3 173.5t1 162t-1 162t-3 173t-5.5 177t-9.5 174h580v-117h-398q-6 -115 -8.5 -229.5t-3.5 -222.5h381v-117h-381q0 -129 2 -276.5t9 -294.5h405v-117h-586zM334 1501l131 276h178l-203 -276h-106z" />
<glyph unicode="&#xca;" horiz-adv-x="764" d="M100 0q6 85 9.5 174.5t5.5 178t3 173.5t1 162t-1 162t-3 173t-5.5 177t-9.5 174h580v-117h-398q-6 -115 -8.5 -229.5t-3.5 -222.5h381v-117h-381q0 -129 2 -276.5t9 -294.5h405v-117h-586zM193 1501l125 276h147l125 -276h-103l-96 165l-96 -165h-102z" />
<glyph unicode="&#xcb;" horiz-adv-x="764" d="M100 0q6 85 9.5 174.5t5.5 178t3 173.5t1 162t-1 162t-3 173t-5.5 177t-9.5 174h580v-117h-398q-6 -115 -8.5 -229.5t-3.5 -222.5h381v-117h-381q0 -129 2 -276.5t9 -294.5h405v-117h-586zM191 1602q0 34 23.5 57.5t57.5 23.5t57.5 -23.5t23.5 -57.5t-23.5 -57.5 t-57.5 -23.5t-57.5 23.5t-23.5 57.5zM428 1602q0 34 23.5 57.5t57.5 23.5t57.5 -23.5t23.5 -57.5t-23.5 -57.5t-57.5 -23.5t-57.5 23.5t-23.5 57.5z" />
<glyph unicode="&#xcc;" horiz-adv-x="401" d="M-53 1777h178l131 -276h-106zM106 0q6 85 9.5 174.5t5.5 178t3 173.5t1 162t-1 162t-3 173t-5.5 177t-9.5 174h189q-6 -85 -9.5 -174t-5.5 -177t-3 -173t-1 -162t1 -162t3 -173.5t5 -178t8 -174.5h-187z" />
<glyph unicode="&#xcd;" horiz-adv-x="401" d="M106 0q6 85 9.5 174.5t5.5 178t3 173.5t1 162t-1 162t-3 173t-5.5 177t-9.5 174h189q-6 -85 -9.5 -174t-5.5 -177t-3 -173t-1 -162t1 -162t3 -173.5t5 -178t8 -174.5h-187zM146 1501l131 276h178l-203 -276h-106z" />
<glyph unicode="&#xce;" horiz-adv-x="401" d="M5 1501l125 276h147l125 -276h-103l-96 165l-96 -165h-102zM106 0q6 85 9.5 174.5t5.5 178t3 173.5t1 162t-1 162t-3 173t-5.5 177t-9.5 174h189q-6 -85 -9.5 -174t-5.5 -177t-3 -173t-1 -162t1 -162t3 -173.5t5 -178t8 -174.5h-187z" />
<glyph unicode="&#xcf;" horiz-adv-x="401" d="M3 1602q0 34 23.5 57.5t57.5 23.5t57.5 -23.5t23.5 -57.5t-23.5 -57.5t-57.5 -23.5t-57.5 23.5t-23.5 57.5zM106 0q6 85 9.5 174.5t5.5 178t3 173.5t1 162t-1 162t-3 173t-5.5 177t-9.5 174h189q-6 -85 -9.5 -174t-5.5 -177t-3 -173t-1 -162t1 -162t3 -173.5t5 -178 t8 -174.5h-187zM240 1602q0 34 23.5 57.5t57.5 23.5t57.5 -23.5t23.5 -57.5t-23.5 -57.5t-57.5 -23.5t-57.5 23.5t-23.5 57.5z" />
<glyph unicode="&#xd0;" horiz-adv-x="964" d="M0 640v123h119q0 71 -1.5 147.5t-3.5 154.5t-5.5 156t-8.5 153h313q107 0 196 -33t152.5 -112.5t99 -211.5t35.5 -329q0 -198 -35.5 -330.5t-99.5 -212t-153 -112.5t-197 -33h-311q5 79 8.5 161t6 164t3.5 161.5t1 153.5h-119zM270 640q0 -121 2.5 -256t8.5 -269h134 q43 0 82.5 9.5t73 33.5t61.5 65.5t47.5 105t30 152t10.5 207.5t-10.5 207.5t-30 152t-47.5 104.5t-61.5 65t-73 33.5t-82.5 9.5h-133q-6 -127 -8.5 -254t-3.5 -243h177v-123h-177z" />
<glyph unicode="&#xd1;" horiz-adv-x="951" d="M100 0q6 85 9.5 174.5t5.5 178t3 173.5t1 162t-1 162t-3 173t-5.5 177t-9.5 174h187q101 -294 198 -555t194 -495h7q1 44 1 92t-0.5 95.5t-1 92.5t-0.5 84q0 77 -1 162t-3 173t-5.5 177t-9.5 174h185q-6 -85 -9.5 -174t-5.5 -177t-3 -173t-1 -162t1 -162t3 -173.5t5 -178 t8 -174.5h-185q-51 147 -100 280t-97.5 257.5t-96.5 243t-96 235.5h-7q-2 -87 -1.5 -169.5t0.5 -158.5q0 -77 1 -162t3 -173.5t5 -178t8 -174.5h-183zM283 1509q0 26 2.5 64t13 73.5t32.5 60.5t60 25q32 0 56.5 -17.5t44 -38t34.5 -38t29 -17.5q13 0 20 12.5t9.5 30 t1.5 36.5t-4 32h100q0 -26 -2.5 -64.5t-13.5 -73.5t-32.5 -60t-60.5 -25q-32 0 -56.5 17.5t-43.5 38t-34.5 38t-28.5 17.5t-20 -13.5t-9.5 -31.5t-1.5 -36.5t4 -29.5h-100z" />
<glyph unicode="&#xd2;" d="M68 686q0 184 33.5 318.5t92 222.5t137.5 130t171 42q91 0 170 -42t137.5 -130t91.5 -222.5t33 -318.5q0 -185 -33 -319.5t-91.5 -222t-137.5 -129.5t-170 -42q-92 0 -171 42t-137.5 129.5t-92 222t-33.5 319.5zM240 686q0 -155 20 -267t55.5 -184t83 -106.5t103.5 -34.5 q55 0 102.5 34.5t82.5 106.5t55 184t20 267q0 154 -20 266t-55 184.5t-82.5 107t-102.5 34.5q-56 0 -103.5 -34.5t-83 -107t-55.5 -184.5t-20 -266zM245 1777h178l131 -276h-106z" />
<glyph unicode="&#xd3;" d="M68 686q0 184 33.5 318.5t92 222.5t137.5 130t171 42q91 0 170 -42t137.5 -130t91.5 -222.5t33 -318.5q0 -185 -33 -319.5t-91.5 -222t-137.5 -129.5t-170 -42q-92 0 -171 42t-137.5 129.5t-92 222t-33.5 319.5zM240 686q0 -155 20 -267t55.5 -184t83 -106.5t103.5 -34.5 q55 0 102.5 34.5t82.5 106.5t55 184t20 267q0 154 -20 266t-55 184.5t-82.5 107t-102.5 34.5q-56 0 -103.5 -34.5t-83 -107t-55.5 -184.5t-20 -266zM444 1501l131 276h178l-203 -276h-106z" />
<glyph unicode="&#xd4;" d="M68 686q0 184 33.5 318.5t92 222.5t137.5 130t171 42q91 0 170 -42t137.5 -130t91.5 -222.5t33 -318.5q0 -185 -33 -319.5t-91.5 -222t-137.5 -129.5t-170 -42q-92 0 -171 42t-137.5 129.5t-92 222t-33.5 319.5zM240 686q0 -155 20 -267t55.5 -184t83 -106.5t103.5 -34.5 q55 0 102.5 34.5t82.5 106.5t55 184t20 267q0 154 -20 266t-55 184.5t-82.5 107t-102.5 34.5q-56 0 -103.5 -34.5t-83 -107t-55.5 -184.5t-20 -266zM303 1501l125 276h147l125 -276h-103l-96 165l-96 -165h-102z" />
<glyph unicode="&#xd5;" d="M68 686q0 184 33.5 318.5t92 222.5t137.5 130t171 42q91 0 170 -42t137.5 -130t91.5 -222.5t33 -318.5q0 -185 -33 -319.5t-91.5 -222t-137.5 -129.5t-170 -42q-92 0 -171 42t-137.5 129.5t-92 222t-33.5 319.5zM240 686q0 -155 20 -267t55.5 -184t83 -106.5t103.5 -34.5 q55 0 102.5 34.5t82.5 106.5t55 184t20 267q0 154 -20 266t-55 184.5t-82.5 107t-102.5 34.5q-56 0 -103.5 -34.5t-83 -107t-55.5 -184.5t-20 -266zM301 1509q0 26 2.5 64t13 73.5t32.5 60.5t60 25q32 0 56.5 -17.5t44 -38t34.5 -38t29 -17.5q13 0 20 12.5t9.5 30t1.5 36.5 t-4 32h100q0 -26 -2.5 -64.5t-13.5 -73.5t-32.5 -60t-60.5 -25q-32 0 -56.5 17.5t-43.5 38t-34.5 38t-28.5 17.5t-20 -13.5t-9.5 -31.5t-1.5 -36.5t4 -29.5h-100z" />
<glyph unicode="&#xd6;" d="M68 686q0 184 33.5 318.5t92 222.5t137.5 130t171 42q91 0 170 -42t137.5 -130t91.5 -222.5t33 -318.5q0 -185 -33 -319.5t-91.5 -222t-137.5 -129.5t-170 -42q-92 0 -171 42t-137.5 129.5t-92 222t-33.5 319.5zM240 686q0 -155 20 -267t55.5 -184t83 -106.5t103.5 -34.5 q55 0 102.5 34.5t82.5 106.5t55 184t20 267q0 154 -20 266t-55 184.5t-82.5 107t-102.5 34.5q-56 0 -103.5 -34.5t-83 -107t-55.5 -184.5t-20 -266zM301 1602q0 34 23.5 57.5t57.5 23.5t57.5 -23.5t23.5 -57.5t-23.5 -57.5t-57.5 -23.5t-57.5 23.5t-23.5 57.5zM538 1602 q0 34 23.5 57.5t57.5 23.5t57.5 -23.5t23.5 -57.5t-23.5 -57.5t-57.5 -23.5t-57.5 23.5t-23.5 57.5z" />
<glyph unicode="&#xd7;" horiz-adv-x="1124" d="M204 412l272 273l-269 269l86 86l270 -269l271 272l87 -87l-272 -271l269 -270l-86 -86l-269 269l-273 -272z" />
<glyph unicode="&#xd8;" d="M68 686q0 184 33.5 318.5t92 222.5t137.5 130t171 42q80 0 148 -31l33 106l113 -36l-44 -141q42 -41 75.5 -99.5t57 -134t36.5 -170t13 -207.5q0 -185 -33 -319.5t-91.5 -222t-137.5 -129.5t-170 -42q-80 0 -152 32l-33 -107l-113 36l44 143q-83 82 -131.5 233t-48.5 376 zM240 686q0 -144 17 -249.5t48 -178.5l305 981q-50 39 -108 39q-56 0 -103.5 -34.5t-83 -107t-55.5 -184.5t-20 -266zM391 135q25 -21 53 -31t58 -10q55 0 102.5 34.5t82.5 106.5t55 184t20 267q0 145 -17.5 251.5t-48.5 178.5z" />
<glyph unicode="&#xd9;" horiz-adv-x="960" d="M91 1374h188q-11 -164 -14.5 -324.5t-3.5 -312.5v-323q0 -74 13 -133.5t40 -100.5t68.5 -63t97.5 -22t97 22t68 63t40.5 100.5t13.5 133.5v323q0 152 -3.5 312.5t-14.5 324.5h188q-9 -165 -13.5 -326t-4.5 -311v-323q0 -104 -23 -186t-69 -139t-115.5 -87.5t-163.5 -30.5 t-163.5 30.5t-115.5 87.5t-69 139t-23 186v323q0 150 -4.5 311t-13.5 326zM223 1777h178l131 -276h-106z" />
<glyph unicode="&#xda;" horiz-adv-x="960" d="M91 1374h188q-11 -164 -14.5 -324.5t-3.5 -312.5v-323q0 -74 13 -133.5t40 -100.5t68.5 -63t97.5 -22t97 22t68 63t40.5 100.5t13.5 133.5v323q0 152 -3.5 312.5t-14.5 324.5h188q-9 -165 -13.5 -326t-4.5 -311v-323q0 -104 -23 -186t-69 -139t-115.5 -87.5t-163.5 -30.5 t-163.5 30.5t-115.5 87.5t-69 139t-23 186v323q0 150 -4.5 311t-13.5 326zM422 1501l131 276h178l-203 -276h-106z" />
<glyph unicode="&#xdb;" horiz-adv-x="960" d="M91 1374h188q-11 -164 -14.5 -324.5t-3.5 -312.5v-323q0 -74 13 -133.5t40 -100.5t68.5 -63t97.5 -22t97 22t68 63t40.5 100.5t13.5 133.5v323q0 152 -3.5 312.5t-14.5 324.5h188q-9 -165 -13.5 -326t-4.5 -311v-323q0 -104 -23 -186t-69 -139t-115.5 -87.5t-163.5 -30.5 t-163.5 30.5t-115.5 87.5t-69 139t-23 186v323q0 150 -4.5 311t-13.5 326zM281 1501l125 276h147l125 -276h-103l-96 165l-96 -165h-102z" />
<glyph unicode="&#xdc;" horiz-adv-x="960" d="M91 1374h188q-11 -164 -14.5 -324.5t-3.5 -312.5v-323q0 -74 13 -133.5t40 -100.5t68.5 -63t97.5 -22t97 22t68 63t40.5 100.5t13.5 133.5v323q0 152 -3.5 312.5t-14.5 324.5h188q-9 -165 -13.5 -326t-4.5 -311v-323q0 -104 -23 -186t-69 -139t-115.5 -87.5t-163.5 -30.5 t-163.5 30.5t-115.5 87.5t-69 139t-23 186v323q0 150 -4.5 311t-13.5 326zM279 1602q0 34 23.5 57.5t57.5 23.5t57.5 -23.5t23.5 -57.5t-23.5 -57.5t-57.5 -23.5t-57.5 23.5t-23.5 57.5zM516 1602q0 34 23.5 57.5t57.5 23.5t57.5 -23.5t23.5 -57.5t-23.5 -57.5t-57.5 -23.5 t-57.5 23.5t-23.5 57.5z" />
<glyph unicode="&#xdd;" horiz-adv-x="744" d="M0 1374h186q43 -173 88.5 -325t94.5 -291h4q49 139 95 291t90 325h186q-35 -89 -70.5 -180.5t-72.5 -190t-74.5 -205t-77.5 -223.5q1 -148 5 -289.5t12 -285.5h-187q9 144 13.5 285.5t5.5 289.5q-40 117 -78 223.5t-75.5 205t-73.5 190t-71 180.5zM315 1501l131 276h178 l-203 -276h-106z" />
<glyph unicode="&#xde;" horiz-adv-x="838" d="M100 0q6 85 9.5 174.5t5.5 178t3 173.5t1 162t-1 162t-3 173t-5.5 177t-9.5 174h189q-7 -110 -12 -226h157q84 0 150 -28.5t111.5 -83.5t69 -134t23.5 -179q0 -43 -8 -91.5t-26 -95.5t-46 -90.5t-68.5 -76.5t-94 -52.5t-121.5 -19.5h-149q2 -75 4.5 -150t7.5 -147h-187z M270 552.5q0 -70.5 2 -144.5h152q90 0 140 82.5t50 232.5q0 153 -47 233t-143 80h-150q-2 -92 -3 -180t-1 -168v-135.5z" />
<glyph unicode="&#xdf;" horiz-adv-x="945" d="M101 0q9 165 13.5 326t4.5 311v353q0 104 26.5 181.5t75.5 129t119.5 77t157.5 25.5q59 0 119.5 -18.5t109 -59t79.5 -105t31 -157.5q0 -63 -17.5 -115.5t-45 -93t-62.5 -68.5t-69 -42q47 -18 92.5 -47.5t81.5 -74t58 -106t22 -143.5q0 -93 -24.5 -166.5t-70 -123.5 t-109.5 -76.5t-143 -26.5q-60 0 -104.5 7.5t-80.5 16.5v163q13 -10 30.5 -22t39 -23t47.5 -18.5t56 -7.5q41 0 75.5 14.5t59 47t38 86t13.5 131.5q0 151 -79 227.5t-219 76.5v108q74 0 121 25.5t73.5 64t36 84t9.5 85.5q0 70 -15 117t-39.5 75t-55.5 40t-63 12 q-45 0 -85.5 -15t-71 -50t-48 -91.5t-17.5 -138.5v-358q0 -152 3.5 -312.5t14.5 -324.5h-188z" />
<glyph unicode="&#xe0;" horiz-adv-x="889" d="M50 364q0 121 37 207t109.5 146t180 97t248.5 60q0 121 -12.5 200t-36.5 125.5t-59.5 64.5t-81.5 18q-40 0 -80 -12.5t-79.5 -33.5t-79 -48.5t-77.5 -57.5v194q42 16 80 29.5t76.5 23.5t77.5 16t83 6q88 0 153.5 -24t109 -76t65 -134t21.5 -197q0 -11 -0.5 -37t-1 -61 t-1 -75t-1 -79t-1 -73.5t-0.5 -57.5q0 -53 1 -119.5t3.5 -141.5t6 -157t8.5 -167h-191l5 121q-24 -27 -49 -53.5t-56 -47t-70.5 -33t-93.5 -12.5q-62 0 -115.5 25.5t-93 74.5t-62.5 121.5t-23 167.5zM160 1777h178l131 -276h-106zM228 376q0 -63 11.5 -114t33.5 -86.5 t52 -54.5t68 -19q43 0 75.5 15.5t59 40t48.5 55t44 60.5q3 102 5 218.5t2 266.5q-127 -15 -205 -49t-121 -83.5t-58 -112.5t-15 -137z" />
<glyph unicode="&#xe1;" horiz-adv-x="889" d="M50 364q0 121 37 207t109.5 146t180 97t248.5 60q0 121 -12.5 200t-36.5 125.5t-59.5 64.5t-81.5 18q-40 0 -80 -12.5t-79.5 -33.5t-79 -48.5t-77.5 -57.5v194q42 16 80 29.5t76.5 23.5t77.5 16t83 6q88 0 153.5 -24t109 -76t65 -134t21.5 -197q0 -11 -0.5 -37t-1 -61 t-1 -75t-1 -79t-1 -73.5t-0.5 -57.5q0 -53 1 -119.5t3.5 -141.5t6 -157t8.5 -167h-191l5 121q-24 -27 -49 -53.5t-56 -47t-70.5 -33t-93.5 -12.5q-62 0 -115.5 25.5t-93 74.5t-62.5 121.5t-23 167.5zM228 376q0 -63 11.5 -114t33.5 -86.5t52 -54.5t68 -19q43 0 75.5 15.5 t59 40t48.5 55t44 60.5q3 102 5 218.5t2 266.5q-127 -15 -205 -49t-121 -83.5t-58 -112.5t-15 -137zM359 1501l131 276h178l-203 -276h-106z" />
<glyph unicode="&#xe2;" horiz-adv-x="889" d="M50 364q0 121 37 207t109.5 146t180 97t248.5 60q0 121 -12.5 200t-36.5 125.5t-59.5 64.5t-81.5 18q-40 0 -80 -12.5t-79.5 -33.5t-79 -48.5t-77.5 -57.5v194q42 16 80 29.5t76.5 23.5t77.5 16t83 6q88 0 153.5 -24t109 -76t65 -134t21.5 -197q0 -11 -0.5 -37t-1 -61 t-1 -75t-1 -79t-1 -73.5t-0.5 -57.5q0 -53 1 -119.5t3.5 -141.5t6 -157t8.5 -167h-191l5 121q-24 -27 -49 -53.5t-56 -47t-70.5 -33t-93.5 -12.5q-62 0 -115.5 25.5t-93 74.5t-62.5 121.5t-23 167.5zM228 376q0 -63 11.5 -114t33.5 -86.5t52 -54.5t68 -19q43 0 75.5 15.5 t59 40t48.5 55t44 60.5q3 102 5 218.5t2 266.5q-127 -15 -205 -49t-121 -83.5t-58 -112.5t-15 -137zM238 1501l125 276h147l125 -276h-103l-96 165l-96 -165h-102z" />
<glyph unicode="&#xe3;" horiz-adv-x="889" d="M50 364q0 121 37 207t109.5 146t180 97t248.5 60q0 121 -12.5 200t-36.5 125.5t-59.5 64.5t-81.5 18q-40 0 -80 -12.5t-79.5 -33.5t-79 -48.5t-77.5 -57.5v194q42 16 80 29.5t76.5 23.5t77.5 16t83 6q88 0 153.5 -24t109 -76t65 -134t21.5 -197q0 -11 -0.5 -37t-1 -61 t-1 -75t-1 -79t-1 -73.5t-0.5 -57.5q0 -53 1 -119.5t3.5 -141.5t6 -157t8.5 -167h-191l5 121q-24 -27 -49 -53.5t-56 -47t-70.5 -33t-93.5 -12.5q-62 0 -115.5 25.5t-93 74.5t-62.5 121.5t-23 167.5zM228 376q0 -63 11.5 -114t33.5 -86.5t52 -54.5t68 -19q43 0 75.5 15.5 t59 40t48.5 55t44 60.5q3 102 5 218.5t2 266.5q-127 -15 -205 -49t-121 -83.5t-58 -112.5t-15 -137zM236 1509q0 26 2.5 64t13 73.5t32.5 60.5t60 25q32 0 56.5 -17.5t44 -38t34.5 -38t29 -17.5q13 0 20 12.5t9.5 30t1.5 36.5t-4 32h100q0 -26 -2.5 -64.5t-13.5 -73.5 t-32.5 -60t-60.5 -25q-32 0 -56.5 17.5t-43.5 38t-34.5 38t-28.5 17.5t-20 -13.5t-9.5 -31.5t-1.5 -36.5t4 -29.5h-100z" />
<glyph unicode="&#xe4;" horiz-adv-x="889" d="M50 364q0 121 37 207t109.5 146t180 97t248.5 60q0 121 -12.5 200t-36.5 125.5t-59.5 64.5t-81.5 18q-40 0 -80 -12.5t-79.5 -33.5t-79 -48.5t-77.5 -57.5v194q42 16 80 29.5t76.5 23.5t77.5 16t83 6q88 0 153.5 -24t109 -76t65 -134t21.5 -197q0 -11 -0.5 -37t-1 -61 t-1 -75t-1 -79t-1 -73.5t-0.5 -57.5q0 -53 1 -119.5t3.5 -141.5t6 -157t8.5 -167h-191l5 121q-24 -27 -49 -53.5t-56 -47t-70.5 -33t-93.5 -12.5q-62 0 -115.5 25.5t-93 74.5t-62.5 121.5t-23 167.5zM228 376q0 -63 11.5 -114t33.5 -86.5t52 -54.5t68 -19q43 0 75.5 15.5 t59 40t48.5 55t44 60.5q3 102 5 218.5t2 266.5q-127 -15 -205 -49t-121 -83.5t-58 -112.5t-15 -137zM236 1602q0 34 23.5 57.5t57.5 23.5t57.5 -23.5t23.5 -57.5t-23.5 -57.5t-57.5 -23.5t-57.5 23.5t-23.5 57.5zM473 1602q0 34 23.5 57.5t57.5 23.5t57.5 -23.5t23.5 -57.5 t-23.5 -57.5t-57.5 -23.5t-57.5 23.5t-23.5 57.5z" />
<glyph unicode="&#xe5;" horiz-adv-x="889" d="M50 364q0 121 37 207t109.5 146t180 97t248.5 60q0 121 -12.5 200t-36.5 125.5t-59.5 64.5t-81.5 18q-40 0 -80 -12.5t-79.5 -33.5t-79 -48.5t-77.5 -57.5v194q42 16 80 29.5t76.5 23.5t77.5 16t83 6q88 0 153.5 -24t109 -76t65 -134t21.5 -197q0 -11 -0.5 -37t-1 -61 t-1 -75t-1 -79t-1 -73.5t-0.5 -57.5q0 -53 1 -119.5t3.5 -141.5t6 -157t8.5 -167h-191l5 121q-24 -27 -49 -53.5t-56 -47t-70.5 -33t-93.5 -12.5q-62 0 -115.5 25.5t-93 74.5t-62.5 121.5t-23 167.5zM228 376q0 -63 11.5 -114t33.5 -86.5t52 -54.5t68 -19q43 0 75.5 15.5 t59 40t48.5 55t44 60.5q3 102 5 218.5t2 266.5q-127 -15 -205 -49t-121 -83.5t-58 -112.5t-15 -137zM262 1646q0 36 13.5 67.5t37.5 55.5t55.5 37.5t67.5 13.5t68 -13.5t55.5 -37.5t37 -55.5t13.5 -67.5t-13.5 -67.5t-37 -55.5t-55.5 -37.5t-68 -13.5t-67.5 13.5t-55.5 37.5 t-37.5 55.5t-13.5 67.5zM356 1646q0 -16 6.5 -30.5t17.5 -25.5t25.5 -17.5t30.5 -6.5t30.5 6.5t25.5 17.5t17.5 25.5t6.5 30.5t-6.5 30.5t-17.5 25.5t-25.5 17.5t-30.5 6.5t-30.5 -6.5t-25.5 -17.5t-17.5 -25.5t-6.5 -30.5z" />
<glyph unicode="&#xe6;" horiz-adv-x="1446" d="M50 364q0 121 38 206.5t112 145t183 96t250 59.5q0 121 -13.5 200.5t-39 126.5t-62.5 65.5t-83 18.5q-40 0 -80 -12.5t-79.5 -33.5t-79 -48.5t-77.5 -57.5v194q42 16 80 29.5t76.5 23.5t77.5 16t83 6q112 0 186.5 -39t115.5 -124q45 78 111 120.5t155 42.5 q101 0 173.5 -46.5t119 -135t68 -217.5t21.5 -295v-37h-604q6 -159 25.5 -269t55.5 -179t90.5 -99.5t129.5 -30.5q44 0 79.5 11t65.5 27.5t55 37t48 39.5v-197q-26 -5 -52.5 -11t-59 -11t-72.5 -9t-92 -4q-199 0 -305 160q-56 -47 -105.5 -78t-96 -49t-92 -25t-92.5 -7 q-69 0 -126.5 25.5t-99.5 75t-65 122t-23 167.5zM228 376q0 -63 12 -115t34.5 -89t55 -57t73.5 -20q43 0 85.5 12.5t80.5 33.5t70 47.5t56 54.5q-65 168 -65 439v41t1 40q-125 -16 -204 -51t-123 -85t-60 -114t-16 -137zM784 784h430q-2 58 -6 118t-12.5 116t-23 105 t-37.5 85t-56 57t-78 21q-60 0 -99.5 -44t-64 -115t-36.5 -161t-17 -182z" />
<glyph unicode="&#xe7;" horiz-adv-x="852" d="M68 686q0 181 39.5 314.5t107 221t158 130.5t192.5 43q69 0 125.5 -8.5t112.5 -22.5v-201q-23 19 -47 39.5t-51.5 37t-61.5 27.5t-78 11q-73 0 -132.5 -38.5t-102 -113.5t-65.5 -185.5t-23 -254.5t23 -254.5t65.5 -185.5t102 -113.5t132.5 -38.5q44 0 78 11t61.5 27.5 t51.5 37t47 39.5v-201q-56 -14 -112.5 -22.5t-125.5 -8.5q-107 0 -198 43t-157.5 130.5t-104 221t-37.5 314.5zM400 -232q19 -18 42.5 -30t52.5 -12q37 0 53 21t16 45q0 76 -121 76l43 162h93l-35 -107q24 -4 45.5 -15t37.5 -28.5t25.5 -41.5t9.5 -54q0 -36 -12 -63 t-32.5 -45t-48 -27t-58.5 -9q-34 0 -62.5 6t-48.5 12v110z" />
<glyph unicode="&#xe8;" horiz-adv-x="910" d="M68 682q0 160 26 292.5t76.5 226.5t125 146t172.5 52q101 0 173.5 -46.5t119 -135t68 -217.5t21.5 -295v-37h-604q6 -159 25.5 -269t55.5 -179t90.5 -99.5t129.5 -30.5q44 0 79.5 11t65.5 27.5t55 37t48 39.5v-197q-26 -5 -52.5 -11t-59 -11t-72.5 -9t-92 -4 q-105 0 -188.5 48.5t-142 140t-89.5 223t-31 297.5zM222 1777h178l131 -276h-106zM248 784h430q-2 58 -6 118t-12.5 116t-23 105t-37.5 85t-56 57t-78 21q-60 0 -99.5 -44t-64 -115t-36.5 -161t-17 -182z" />
<glyph unicode="&#xe9;" horiz-adv-x="910" d="M68 682q0 160 26 292.5t76.5 226.5t125 146t172.5 52q101 0 173.5 -46.5t119 -135t68 -217.5t21.5 -295v-37h-604q6 -159 25.5 -269t55.5 -179t90.5 -99.5t129.5 -30.5q44 0 79.5 11t65.5 27.5t55 37t48 39.5v-197q-26 -5 -52.5 -11t-59 -11t-72.5 -9t-92 -4 q-105 0 -188.5 48.5t-142 140t-89.5 223t-31 297.5zM248 784h430q-2 58 -6 118t-12.5 116t-23 105t-37.5 85t-56 57t-78 21q-60 0 -99.5 -44t-64 -115t-36.5 -161t-17 -182zM421 1501l131 276h178l-203 -276h-106z" />
<glyph unicode="&#xea;" horiz-adv-x="910" d="M68 682q0 160 26 292.5t76.5 226.5t125 146t172.5 52q101 0 173.5 -46.5t119 -135t68 -217.5t21.5 -295v-37h-604q6 -159 25.5 -269t55.5 -179t90.5 -99.5t129.5 -30.5q44 0 79.5 11t65.5 27.5t55 37t48 39.5v-197q-26 -5 -52.5 -11t-59 -11t-72.5 -9t-92 -4 q-105 0 -188.5 48.5t-142 140t-89.5 223t-31 297.5zM248 784h430q-2 58 -6 118t-12.5 116t-23 105t-37.5 85t-56 57t-78 21q-60 0 -99.5 -44t-64 -115t-36.5 -161t-17 -182zM280 1501l125 276h147l125 -276h-103l-96 165l-96 -165h-102z" />
<glyph unicode="&#xeb;" horiz-adv-x="910" d="M68 682q0 160 26 292.5t76.5 226.5t125 146t172.5 52q101 0 173.5 -46.5t119 -135t68 -217.5t21.5 -295v-37h-604q6 -159 25.5 -269t55.5 -179t90.5 -99.5t129.5 -30.5q44 0 79.5 11t65.5 27.5t55 37t48 39.5v-197q-26 -5 -52.5 -11t-59 -11t-72.5 -9t-92 -4 q-105 0 -188.5 48.5t-142 140t-89.5 223t-31 297.5zM248 784h430q-2 58 -6 118t-12.5 116t-23 105t-37.5 85t-56 57t-78 21q-60 0 -99.5 -44t-64 -115t-36.5 -161t-17 -182zM278 1602q0 34 23.5 57.5t57.5 23.5t57.5 -23.5t23.5 -57.5t-23.5 -57.5t-57.5 -23.5t-57.5 23.5 t-23.5 57.5zM515 1602q0 34 23.5 57.5t57.5 23.5t57.5 -23.5t23.5 -57.5t-23.5 -57.5t-57.5 -23.5t-57.5 23.5t-23.5 57.5z" />
<glyph unicode="&#xec;" horiz-adv-x="401" d="M-53 1777h178l131 -276h-106zM106 0q6 85 9.5 174.5t5.5 178t3 173.5t1 162t-1 162t-3 173t-5.5 177t-9.5 174h189q-6 -85 -9.5 -174t-5.5 -177t-3 -173t-1 -162t1 -162t3 -173.5t5 -178t8 -174.5h-187z" />
<glyph unicode="&#xed;" horiz-adv-x="401" d="M106 0q6 85 9.5 174.5t5.5 178t3 173.5t1 162t-1 162t-3 173t-5.5 177t-9.5 174h189q-6 -85 -9.5 -174t-5.5 -177t-3 -173t-1 -162t1 -162t3 -173.5t5 -178t8 -174.5h-187zM146 1501l131 276h178l-203 -276h-106z" />
<glyph unicode="&#xee;" horiz-adv-x="401" d="M5 1501l125 276h147l125 -276h-103l-96 165l-96 -165h-102zM106 0q6 85 9.5 174.5t5.5 178t3 173.5t1 162t-1 162t-3 173t-5.5 177t-9.5 174h189q-6 -85 -9.5 -174t-5.5 -177t-3 -173t-1 -162t1 -162t3 -173.5t5 -178t8 -174.5h-187z" />
<glyph unicode="&#xef;" horiz-adv-x="401" d="M3 1602q0 34 23.5 57.5t57.5 23.5t57.5 -23.5t23.5 -57.5t-23.5 -57.5t-57.5 -23.5t-57.5 23.5t-23.5 57.5zM106 0q6 85 9.5 174.5t5.5 178t3 173.5t1 162t-1 162t-3 173t-5.5 177t-9.5 174h189q-6 -85 -9.5 -174t-5.5 -177t-3 -173t-1 -162t1 -162t3 -173.5t5 -178 t8 -174.5h-187zM240 1602q0 34 23.5 57.5t57.5 23.5t57.5 -23.5t23.5 -57.5t-23.5 -57.5t-57.5 -23.5t-57.5 23.5t-23.5 57.5z" />
<glyph unicode="&#xf0;" horiz-adv-x="964" d="M0 640v123h119q0 71 -1.5 147.5t-3.5 154.5t-5.5 156t-8.5 153h313q107 0 196 -33t152.5 -112.5t99 -211.5t35.5 -329q0 -198 -35.5 -330.5t-99.5 -212t-153 -112.5t-197 -33h-311q5 79 8.5 161t6 164t3.5 161.5t1 153.5h-119zM270 640q0 -121 2.5 -256t8.5 -269h134 q43 0 82.5 9.5t73 33.5t61.5 65.5t47.5 105t30 152t10.5 207.5t-10.5 207.5t-30 152t-47.5 104.5t-61.5 65t-73 33.5t-82.5 9.5h-133q-6 -127 -8.5 -254t-3.5 -243h177v-123h-177z" />
<glyph unicode="&#xf1;" horiz-adv-x="948" d="M100 0q5 89 8.5 170.5t6 162.5t3.5 165t1 177t-1 180.5t-3.5 173t-6 171t-8.5 174.5h186l-9 -155q30 36 67 68.5t77 57.5t82 39.5t83 14.5q119 0 184.5 -94.5t65.5 -281.5q0 -46 -0.5 -98.5t-1.5 -103t-1.5 -93.5t-0.5 -70q0 -93 1 -174t3 -159t5.5 -157t8.5 -168h-184 q5 89 9 168t7 157t3.5 159t-0.5 174q-2 156 -6.5 272.5t-19 193t-42.5 114.5t-77 38q-26 0 -62.5 -17t-74.5 -45.5t-73 -64.5t-58 -73q-6 -198 -6 -401q0 -93 1 -177t3 -165t6 -162.5t9 -170.5h-185zM275 1509q0 26 2.5 64t13 73.5t32.5 60.5t60 25q32 0 56.5 -17.5t44 -38 t34.5 -38t29 -17.5q13 0 20 12.5t9.5 30t1.5 36.5t-4 32h100q0 -26 -2.5 -64.5t-13.5 -73.5t-32.5 -60t-60.5 -25q-32 0 -56.5 17.5t-43.5 38t-34.5 38t-28.5 17.5t-20 -13.5t-9.5 -31.5t-1.5 -36.5t4 -29.5h-100z" />
<glyph unicode="&#xf2;" d="M68 686q0 184 33.5 318.5t92 222.5t137.5 130t171 42q91 0 170 -42t137.5 -130t91.5 -222.5t33 -318.5q0 -185 -33 -319.5t-91.5 -222t-137.5 -129.5t-170 -42q-92 0 -171 42t-137.5 129.5t-92 222t-33.5 319.5zM240 686q0 -155 20 -267t55.5 -184t83 -106.5t103.5 -34.5 q55 0 102.5 34.5t82.5 106.5t55 184t20 267q0 154 -20 266t-55 184.5t-82.5 107t-102.5 34.5q-56 0 -103.5 -34.5t-83 -107t-55.5 -184.5t-20 -266zM245 1777h178l131 -276h-106z" />
<glyph unicode="&#xf3;" d="M68 686q0 184 33.5 318.5t92 222.5t137.5 130t171 42q91 0 170 -42t137.5 -130t91.5 -222.5t33 -318.5q0 -185 -33 -319.5t-91.5 -222t-137.5 -129.5t-170 -42q-92 0 -171 42t-137.5 129.5t-92 222t-33.5 319.5zM240 686q0 -155 20 -267t55.5 -184t83 -106.5t103.5 -34.5 q55 0 102.5 34.5t82.5 106.5t55 184t20 267q0 154 -20 266t-55 184.5t-82.5 107t-102.5 34.5q-56 0 -103.5 -34.5t-83 -107t-55.5 -184.5t-20 -266zM444 1501l131 276h178l-203 -276h-106z" />
<glyph unicode="&#xf4;" d="M68 686q0 184 33.5 318.5t92 222.5t137.5 130t171 42q91 0 170 -42t137.5 -130t91.5 -222.5t33 -318.5q0 -185 -33 -319.5t-91.5 -222t-137.5 -129.5t-170 -42q-92 0 -171 42t-137.5 129.5t-92 222t-33.5 319.5zM240 686q0 -155 20 -267t55.5 -184t83 -106.5t103.5 -34.5 q55 0 102.5 34.5t82.5 106.5t55 184t20 267q0 154 -20 266t-55 184.5t-82.5 107t-102.5 34.5q-56 0 -103.5 -34.5t-83 -107t-55.5 -184.5t-20 -266zM303 1501l125 276h147l125 -276h-103l-96 165l-96 -165h-102z" />
<glyph unicode="&#xf5;" d="M68 686q0 184 33.5 318.5t92 222.5t137.5 130t171 42q91 0 170 -42t137.5 -130t91.5 -222.5t33 -318.5q0 -185 -33 -319.5t-91.5 -222t-137.5 -129.5t-170 -42q-92 0 -171 42t-137.5 129.5t-92 222t-33.5 319.5zM240 686q0 -155 20 -267t55.5 -184t83 -106.5t103.5 -34.5 q55 0 102.5 34.5t82.5 106.5t55 184t20 267q0 154 -20 266t-55 184.5t-82.5 107t-102.5 34.5q-56 0 -103.5 -34.5t-83 -107t-55.5 -184.5t-20 -266zM301 1509q0 26 2.5 64t13 73.5t32.5 60.5t60 25q32 0 56.5 -17.5t44 -38t34.5 -38t29 -17.5q13 0 20 12.5t9.5 30t1.5 36.5 t-4 32h100q0 -26 -2.5 -64.5t-13.5 -73.5t-32.5 -60t-60.5 -25q-32 0 -56.5 17.5t-43.5 38t-34.5 38t-28.5 17.5t-20 -13.5t-9.5 -31.5t-1.5 -36.5t4 -29.5h-100z" />
<glyph unicode="&#xf6;" d="M68 686q0 184 33.5 318.5t92 222.5t137.5 130t171 42q91 0 170 -42t137.5 -130t91.5 -222.5t33 -318.5q0 -185 -33 -319.5t-91.5 -222t-137.5 -129.5t-170 -42q-92 0 -171 42t-137.5 129.5t-92 222t-33.5 319.5zM240 686q0 -155 20 -267t55.5 -184t83 -106.5t103.5 -34.5 q55 0 102.5 34.5t82.5 106.5t55 184t20 267q0 154 -20 266t-55 184.5t-82.5 107t-102.5 34.5q-56 0 -103.5 -34.5t-83 -107t-55.5 -184.5t-20 -266zM301 1602q0 34 23.5 57.5t57.5 23.5t57.5 -23.5t23.5 -57.5t-23.5 -57.5t-57.5 -23.5t-57.5 23.5t-23.5 57.5zM538 1602 q0 34 23.5 57.5t57.5 23.5t57.5 -23.5t23.5 -57.5t-23.5 -57.5t-57.5 -23.5t-57.5 23.5t-23.5 57.5z" />
<glyph unicode="&#xf7;" horiz-adv-x="1124" d="M150 624v122h824v-122h-824zM466 393q0 40 28 68t68 28t68 -28t28 -68t-28 -68t-68 -28t-68 28t-28 68zM466 977q0 40 28 68t68 28t68 -28t28 -68t-28 -68t-68 -28t-68 28t-28 68z" />
<glyph unicode="&#xf8;" d="M68 686q0 184 33.5 318.5t92 222.5t137.5 130t171 42q80 0 148 -31l33 106l113 -36l-44 -141q42 -41 75.5 -99.5t57 -134t36.5 -170t13 -207.5q0 -185 -33 -319.5t-91.5 -222t-137.5 -129.5t-170 -42q-80 0 -152 32l-33 -107l-113 36l44 143q-83 82 -131.5 233t-48.5 376 zM240 686q0 -144 17 -249.5t48 -178.5l305 981q-50 39 -108 39q-56 0 -103.5 -34.5t-83 -107t-55.5 -184.5t-20 -266zM391 135q25 -21 53 -31t58 -10q55 0 102.5 34.5t82.5 106.5t55 184t20 267q0 145 -17.5 251.5t-48.5 178.5z" />
<glyph unicode="&#xf9;" horiz-adv-x="948" d="M98 1374h184q-5 -89 -9 -168t-6.5 -157t-3.5 -159t0 -174q1 -73 2 -139.5t3 -125t5 -106.5t8 -83q13 -87 50 -125.5t95 -38.5q33 0 68 17t67.5 45t62 64t52.5 74q6 198 6 401q0 93 -1 177t-3.5 165t-6 162.5t-8.5 170.5h185q-5 -89 -8.5 -170.5t-6 -162.5t-3.5 -165 t-1 -177t1 -180.5t3.5 -173t6 -171t8.5 -174.5h-186q2 39 4 77.5t4 76.5q-29 -36 -61.5 -68.5t-70.5 -57t-81.5 -39t-94.5 -14.5q-119 0 -184.5 94.5t-65.5 281.5q0 46 0.5 98.5t1.5 103t1.5 93.5t0.5 70q0 93 -1 174t-3 159t-5.5 157t-8.5 168zM216 1777h178l131 -276h-106 z" />
<glyph unicode="&#xfa;" horiz-adv-x="948" d="M98 1374h184q-5 -89 -9 -168t-6.5 -157t-3.5 -159t0 -174q1 -73 2 -139.5t3 -125t5 -106.5t8 -83q13 -87 50 -125.5t95 -38.5q33 0 68 17t67.5 45t62 64t52.5 74q6 198 6 401q0 93 -1 177t-3.5 165t-6 162.5t-8.5 170.5h185q-5 -89 -8.5 -170.5t-6 -162.5t-3.5 -165 t-1 -177t1 -180.5t3.5 -173t6 -171t8.5 -174.5h-186q2 39 4 77.5t4 76.5q-29 -36 -61.5 -68.5t-70.5 -57t-81.5 -39t-94.5 -14.5q-119 0 -184.5 94.5t-65.5 281.5q0 46 0.5 98.5t1.5 103t1.5 93.5t0.5 70q0 93 -1 174t-3 159t-5.5 157t-8.5 168zM415 1501l131 276h178 l-203 -276h-106z" />
<glyph unicode="&#xfb;" horiz-adv-x="948" d="M98 1374h184q-5 -89 -9 -168t-6.5 -157t-3.5 -159t0 -174q1 -73 2 -139.5t3 -125t5 -106.5t8 -83q13 -87 50 -125.5t95 -38.5q33 0 68 17t67.5 45t62 64t52.5 74q6 198 6 401q0 93 -1 177t-3.5 165t-6 162.5t-8.5 170.5h185q-5 -89 -8.5 -170.5t-6 -162.5t-3.5 -165 t-1 -177t1 -180.5t3.5 -173t6 -171t8.5 -174.5h-186q2 39 4 77.5t4 76.5q-29 -36 -61.5 -68.5t-70.5 -57t-81.5 -39t-94.5 -14.5q-119 0 -184.5 94.5t-65.5 281.5q0 46 0.5 98.5t1.5 103t1.5 93.5t0.5 70q0 93 -1 174t-3 159t-5.5 157t-8.5 168zM274 1501l125 276h147 l125 -276h-103l-96 165l-96 -165h-102z" />
<glyph unicode="&#xfc;" horiz-adv-x="948" d="M98 1374h184q-5 -89 -9 -168t-6.5 -157t-3.5 -159t0 -174q1 -73 2 -139.5t3 -125t5 -106.5t8 -83q13 -87 50 -125.5t95 -38.5q33 0 68 17t67.5 45t62 64t52.5 74q6 198 6 401q0 93 -1 177t-3.5 165t-6 162.5t-8.5 170.5h185q-5 -89 -8.5 -170.5t-6 -162.5t-3.5 -165 t-1 -177t1 -180.5t3.5 -173t6 -171t8.5 -174.5h-186q2 39 4 77.5t4 76.5q-29 -36 -61.5 -68.5t-70.5 -57t-81.5 -39t-94.5 -14.5q-119 0 -184.5 94.5t-65.5 281.5q0 46 0.5 98.5t1.5 103t1.5 93.5t0.5 70q0 93 -1 174t-3 159t-5.5 157t-8.5 168zM272 1602q0 34 23.5 57.5 t57.5 23.5t57.5 -23.5t23.5 -57.5t-23.5 -57.5t-57.5 -23.5t-57.5 23.5t-23.5 57.5zM509 1602q0 34 23.5 57.5t57.5 23.5t57.5 -23.5t23.5 -57.5t-23.5 -57.5t-57.5 -23.5t-57.5 23.5t-23.5 57.5z" />
<glyph unicode="&#xfd;" horiz-adv-x="821" d="M10 1374h186q19 -77 48 -173t61.5 -195t64.5 -193.5t58 -169.5q33 109 65 218t59 206.5t47.5 177t31.5 129.5h186q-33 -98 -77 -228t-93.5 -281.5t-101.5 -318t-101 -335.5q-35 -120 -101.5 -179t-179.5 -59q-45 0 -80 4.5t-44 6.5v142q5 -2 16.5 -5t27 -6t33.5 -5.5 t35 -2.5q58 0 91.5 36.5t60.5 112.5q14 41 29 85.5t31 93.5q-26 77 -56.5 161t-62.5 169.5t-64 170t-62.5 163.5t-58 149zM369 1501l131 276h178l-203 -276h-106z" />
<glyph unicode="&#xfe;" horiz-adv-x="838" d="M100 0q6 85 9.5 174.5t5.5 178t3 173.5t1 162t-1 162t-3 173t-5.5 177t-9.5 174h189q-7 -110 -12 -226h157q84 0 150 -28.5t111.5 -83.5t69 -134t23.5 -179q0 -43 -8 -91.5t-26 -95.5t-46 -90.5t-68.5 -76.5t-94 -52.5t-121.5 -19.5h-149q2 -75 4.5 -150t7.5 -147h-187z M270 552.5q0 -70.5 2 -144.5h152q90 0 140 82.5t50 232.5q0 153 -47 233t-143 80h-150q-2 -92 -3 -180t-1 -168v-135.5z" />
<glyph unicode="&#xff;" horiz-adv-x="821" d="M10 1374h186q19 -77 48 -173t61.5 -195t64.5 -193.5t58 -169.5q33 109 65 218t59 206.5t47.5 177t31.5 129.5h186q-33 -98 -77 -228t-93.5 -281.5t-101.5 -318t-101 -335.5q-35 -120 -101.5 -179t-179.5 -59q-45 0 -80 4.5t-44 6.5v142q5 -2 16.5 -5t27 -6t33.5 -5.5 t35 -2.5q58 0 91.5 36.5t60.5 112.5q14 41 29 85.5t31 93.5q-26 77 -56.5 161t-62.5 169.5t-64 170t-62.5 163.5t-58 149zM216 1602q0 34 23.5 57.5t57.5 23.5t57.5 -23.5t23.5 -57.5t-23.5 -57.5t-57.5 -23.5t-57.5 23.5t-23.5 57.5zM453 1602q0 34 23.5 57.5t57.5 23.5 t57.5 -23.5t23.5 -57.5t-23.5 -57.5t-57.5 -23.5t-57.5 23.5t-23.5 57.5z" />
<glyph unicode="&#x152;" horiz-adv-x="1327" d="M68 686q0 184 33.5 318.5t92 222.5t137.5 130t171 42q49 0 88.5 -14t74.5 -43q-1 8 -1.5 16t-0.5 16h580v-117h-398q-6 -115 -8.5 -229.5t-3.5 -222.5h381v-117h-381q0 -129 2 -276.5t9 -294.5h405v-117h-586q0 7 0.5 14t0.5 15q-66 -56 -162 -56q-92 0 -171 42 t-137.5 129.5t-92 222t-33.5 319.5zM240 686q0 -155 20 -267t55.5 -184t83 -106.5t103.5 -34.5q100 0 170 85q6 133 8 263.5t2 245.5q0 114 -2 243.5t-7 260.5q-37 45 -78.5 65.5t-92.5 20.5q-56 0 -103.5 -34.5t-83 -107t-55.5 -184.5t-20 -266z" />
<glyph unicode="&#x153;" horiz-adv-x="1597" d="M68 686q0 184 33.5 318.5t92 222.5t137.5 130t171 42q107 0 195.5 -57t147.5 -177q48 111 125 172.5t185 61.5q101 0 173.5 -46.5t119 -135t68 -217.5t21.5 -295v-37h-604v-13q6 -155 26 -263t56.5 -175t90.5 -97t128 -30q44 0 79.5 11t65.5 27.5t55 37t48 39.5v-197 q-26 -5 -52.5 -11t-59 -11t-72.5 -9t-92 -4q-121 0 -210 63t-146 182q-58 -126 -148.5 -185.5t-199.5 -59.5q-92 0 -171 42t-137.5 129.5t-92 222t-33.5 319.5zM240 686q0 -155 20 -267t55.5 -184t83 -106.5t103.5 -34.5q55 0 102.5 34.5t82.5 106.5t55 184t20 267 q0 154 -20 266t-55 184.5t-82.5 107t-102.5 34.5q-56 0 -103.5 -34.5t-83 -107t-55.5 -184.5t-20 -266zM935 784h430q-2 58 -6 118t-12.5 116t-23 105t-37.5 85t-56 57t-78 21q-60 0 -99.5 -44t-64 -115t-36.5 -161t-17 -182z" />
<glyph unicode="&#x178;" horiz-adv-x="744" d="M0 1374h186q43 -173 88.5 -325t94.5 -291h4q49 139 95 291t90 325h186q-35 -89 -70.5 -180.5t-72.5 -190t-74.5 -205t-77.5 -223.5q1 -148 5 -289.5t12 -285.5h-187q9 144 13.5 285.5t5.5 289.5q-40 117 -78 223.5t-75.5 205t-73.5 190t-71 180.5zM172 1602 q0 34 23.5 57.5t57.5 23.5t57.5 -23.5t23.5 -57.5t-23.5 -57.5t-57.5 -23.5t-57.5 23.5t-23.5 57.5zM409 1602q0 34 23.5 57.5t57.5 23.5t57.5 -23.5t23.5 -57.5t-23.5 -57.5t-57.5 -23.5t-57.5 23.5t-23.5 57.5z" />
<glyph unicode="&#x2c6;" horiz-adv-x="541" d="M72 1139l125 276h147l125 -276h-103l-96 165l-96 -165h-102z" />
<glyph unicode="&#x2dc;" horiz-adv-x="541" d="M71 1147q0 26 2.5 64t13 73.5t32.5 60.5t60 25q32 0 56.5 -17.5t44 -38t34.5 -38t29 -17.5q13 0 20 12.5t9.5 30t1.5 36.5t-4 32h100q0 -26 -2.5 -64.5t-13.5 -73.5t-32.5 -60t-60.5 -25q-32 0 -56.5 17.5t-43.5 38t-34.5 38t-28.5 17.5t-20 -13.5t-9.5 -31.5t-1.5 -36.5 t4 -29.5h-100z" />
<glyph unicode="&#x2000;" horiz-adv-x="910" />
<glyph unicode="&#x2001;" horiz-adv-x="1820" />
<glyph unicode="&#x2002;" horiz-adv-x="910" />
<glyph unicode="&#x2003;" horiz-adv-x="1820" />
<glyph unicode="&#x2004;" horiz-adv-x="606" />
<glyph unicode="&#x2005;" horiz-adv-x="455" />
<glyph unicode="&#x2006;" horiz-adv-x="303" />
<glyph unicode="&#x2007;" horiz-adv-x="303" />
<glyph unicode="&#x2008;" horiz-adv-x="227" />
<glyph unicode="&#x2009;" horiz-adv-x="364" />
<glyph unicode="&#x200a;" horiz-adv-x="101" />
<glyph unicode="&#x2010;" horiz-adv-x="610" d="M120 616v141h370v-141h-370z" />
<glyph unicode="&#x2011;" horiz-adv-x="610" d="M120 616v141h370v-141h-370z" />
<glyph unicode="&#x2012;" horiz-adv-x="610" d="M120 616v141h370v-141h-370z" />
<glyph unicode="&#x2013;" horiz-adv-x="1024" d="M120 629v115h784v-115h-784z" />
<glyph unicode="&#x2014;" horiz-adv-x="2048" d="M0 629v115h2048v-115h-2048z" />
<glyph unicode="&#x2018;" horiz-adv-x="279" d="M40 1191q0 32 13 64t33.5 60t44.5 50t46 34l50 -49q-12 -5 -25 -15t-24 -22.5t-18 -28t-7 -30.5q37 -5 61.5 -27.5t24.5 -59.5t-28 -62t-70 -25q-41 0 -71 28.5t-30 82.5z" />
<glyph unicode="&#x2019;" horiz-adv-x="279" d="M40 1312q0 37 28 62t70 25q41 0 71 -28.5t30 -82.5q0 -32 -13.5 -64t-33.5 -60t-44 -50t-46 -34l-50 49q12 5 25 15t24 22.5t18 28t7 30.5q-37 5 -61.5 27.5t-24.5 59.5z" />
<glyph unicode="&#x201a;" horiz-adv-x="279" d="M40 87q0 37 28 62t70 25q41 0 71 -28.5t30 -82.5q0 -32 -13.5 -64t-33.5 -60t-44 -50t-46 -34l-50 49q12 5 25 15t24 22.5t18 28t7 30.5q-37 5 -61.5 27.5t-24.5 59.5z" />
<glyph unicode="&#x201c;" horiz-adv-x="539" d="M40 1191q0 32 13 64t33.5 60t44.5 50t46 34l50 -49q-12 -5 -25 -15t-24 -22.5t-18 -28t-7 -30.5q37 -5 61.5 -27.5t24.5 -59.5t-28 -62t-70 -25q-41 0 -71 28.5t-30 82.5zM300 1191q0 32 13 64t33.5 60t44.5 50t46 34l50 -49q-12 -5 -25 -15t-24 -22.5t-18 -28t-7 -30.5 q37 -5 61.5 -27.5t24.5 -59.5t-28 -62t-70 -25q-41 0 -71 28.5t-30 82.5z" />
<glyph unicode="&#x201d;" horiz-adv-x="539" d="M40 1312q0 37 28 62t70 25q41 0 71 -28.5t30 -82.5q0 -32 -13.5 -64t-33.5 -60t-44 -50t-46 -34l-50 49q12 5 25 15t24 22.5t18 28t7 30.5q-37 5 -61.5 27.5t-24.5 59.5zM300 1312q0 37 28 62t70 25q41 0 71 -28.5t30 -82.5q0 -32 -13.5 -64t-33.5 -60t-44 -50t-46 -34 l-50 49q12 5 25 15t24 22.5t18 28t7 30.5q-37 5 -61.5 27.5t-24.5 59.5z" />
<glyph unicode="&#x201e;" horiz-adv-x="539" d="M40 87q0 37 28 62t70 25q41 0 71 -28.5t30 -82.5q0 -32 -13.5 -64t-33.5 -60t-44 -50t-46 -34l-50 49q12 5 25 15t24 22.5t18 28t7 30.5q-37 5 -61.5 27.5t-24.5 59.5zM300 87q0 37 28 62t70 25q41 0 71 -28.5t30 -82.5q0 -32 -13.5 -64t-33.5 -60t-44 -50t-46 -34 l-50 49q12 5 25 15t24 22.5t18 28t7 30.5q-37 5 -61.5 27.5t-24.5 59.5z" />
<glyph unicode="&#x2022;" horiz-adv-x="600" d="M95 707q0 42 16 79t44 65t65.5 44t79.5 16t79.5 -16t65.5 -44t44 -65t16 -79t-16 -79.5t-44 -65.5t-65.5 -44t-79.5 -16t-79.5 16t-65.5 44t-44 65.5t-16 79.5z" />
<glyph unicode="&#x2026;" horiz-adv-x="924" d="M50 82q0 21 8 40t22 33.5t33 22.5t41 8q21 0 40 -8t33.5 -22.5t22.5 -33.5t8 -40q0 -22 -8 -41t-22.5 -33t-33.5 -22t-40 -8q-44 0 -74 30t-30 74zM358 82q0 21 8 40t22 33.5t33 22.5t41 8q21 0 40 -8t33.5 -22.5t22.5 -33.5t8 -40q0 -22 -8 -41t-22.5 -33t-33.5 -22 t-40 -8q-44 0 -74 30t-30 74zM666 82q0 21 8 40t22 33.5t33 22.5t41 8q21 0 40 -8t33.5 -22.5t22.5 -33.5t8 -40q0 -22 -8 -41t-22.5 -33t-33.5 -22t-40 -8q-44 0 -74 30t-30 74z" />
<glyph unicode="&#x202f;" horiz-adv-x="364" />
<glyph unicode="&#x2039;" horiz-adv-x="450" d="M60 685l228 383l116 -75l-199 -308l199 -310l-116 -75z" />
<glyph unicode="&#x203a;" horiz-adv-x="450" d="M46 375l199 310l-199 308l116 75l228 -383l-228 -385z" />
<glyph unicode="&#x205f;" horiz-adv-x="455" />
<glyph unicode="&#x20ac;" horiz-adv-x="852" d="M30 539l23 102h91q-1 11 -1 22v23v36t1 36h-114l23 102h99q15 136 54 236.5t94.5 167t125.5 99t148 32.5q60 0 109.5 -8.5t98.5 -22.5v-201q-20 19 -41 39.5t-45 37t-54 27.5t-68 11q-96 0 -163.5 -106.5t-89.5 -311.5h258l-22 -102h-243q-1 -18 -1 -35.5v-36.5v-45h213 l-21 -102h-186q9 -108 31.5 -191.5t55.5 -139.5t75.5 -85t92.5 -29q38 0 68 11t54 27.5t45 37t41 39.5v-201q-49 -14 -98.5 -22.5t-109.5 -8.5q-84 0 -156 34t-127.5 103.5t-92 175.5t-49.5 249h-119z" />
<glyph unicode="&#x2122;" horiz-adv-x="960" d="M30 1303v71h337v-71h-121q-3 -59 -4 -117.5t-1 -109.5q0 -66 1.5 -145t6.5 -153h-101q5 74 6.5 153t1.5 145q0 51 -1 109.5t-3 117.5h-122zM401 778q5 74 6.5 153t1.5 145q0 67 -1.5 145.5t-6.5 152.5h133q13 -62 24 -115t22.5 -102t24.5 -96.5t28 -97.5h5q15 50 28 97.5 t24.5 96.5t22.5 102t24 115h133q-5 -74 -6.5 -152.5t-1.5 -145.5q0 -66 1.5 -145t6.5 -153h-99q4 74 5.5 153t1.5 145q0 33 0.5 74.5t-1.5 79.5h-4q-35 -115 -60.5 -229.5t-46.5 -222.5h-61q-21 108 -46.5 222.5t-60.5 229.5h-4q-2 -38 -1.5 -79.5t0.5 -74.5q0 -66 1.5 -145 t5.5 -153h-99z" />
<glyph unicode="&#xe000;" horiz-adv-x="1375" d="M0 0v1375h1375v-1375h-1375z" />
<glyph unicode="&#xfb01;" horiz-adv-x="1133" d="M101 0q9 165 13.5 326t4.5 311v319q0 104 26 186t78 139t129 87.5t178 30.5q20 0 45 -1.5t50 -4t48 -6.5t39 -10v-158q-13 13 -34.5 23.5t-47 18t-52 11t-48.5 3.5q-64 0 -112.5 -22t-81 -63.5t-49 -100.5t-16.5 -133v-165h390v-117h-390v-37q0 -152 3.5 -312.5 t14.5 -324.5h-188zM838 0q6 85 9.5 174.5t5.5 178t3 173.5t1 162t-1 162t-3 173t-5.5 177t-9.5 174h189q-6 -85 -9.5 -174t-5.5 -177t-3 -173t-1 -162t1 -162t3 -173.5t5 -178t8 -174.5h-187z" />
<glyph unicode="&#xfb02;" horiz-adv-x="1428" d="M101 0q9 165 13.5 326t4.5 311v319q0 104 26 186t78 139t129 87.5t178 30.5q20 0 45 -1.5t50 -4t48 -6.5t39 -10v-158q-13 13 -34.5 23.5t-47 18t-52 11t-48.5 3.5q-64 0 -112.5 -22t-81 -63.5t-49 -100.5t-16.5 -133v-165h390v-117h-390v-37q0 -152 3.5 -312.5 t14.5 -324.5h-188zM832 0q6 85 9.5 174.5t5.5 178t3 173.5t1 162t-1 162t-3 173t-5.5 177t-9.5 174h189q-6 -85 -9.5 -174t-5.5 -177t-3 -173t-1 -162q0 -129 2 -276.5t9 -294.5h405v-117h-586z" />
</font>
</defs>
</svg>
